<?xml version="1.0" standalone="no"?>
<!DOCTYPE svg PUBLIC "-//W3C//DTD SVG 1.1//EN" "http://www.w3.org/Graphics/SVG/1.1/DTD/svg11.dtd" >
<svg xmlns="http://www.w3.org/2000/svg" xmlns:xlink="http://www.w3.org/1999/xlink" version="1.1">
<metadata>
Created by FontForge 20201107 at Tue Apr 23 17:00:48 2019
 By 
Copyright (c) 2019 JIYUKOBO Ltd. All Rights Reserved.
</metadata>
<defs>
<font id="YuGothicUI-Regular" horiz-adv-x="2048" vert-adv-y="2048" >
  <font-face 
    font-family="Yu Gothic UI"
    font-weight="400"
    font-stretch="normal"
    units-per-em="2048"
    panose-1="2 11 5 0 0 0 0 0 0 0"
    ascent="1638"
    descent="-410"
    x-height="1024"
    cap-height="1434"
    bbox="-2048 -608 2398 2646"
    underline-thickness="104"
    underline-position="-257"
    unicode-range="U+0020-2F9F4"
  />
<missing-glyph horiz-adv-x="748" 
d="M68 0v1365h544v-1365h-544zM136 68h408v1229h-408v-1229z" />
    <glyph glyph-name="aeacute" unicode="&#xe6;&#x301;" horiz-adv-x="1802" 
d="M861 237q-107 -133 -209 -183q-87 -42 -209 -42q-161 0 -248 95q-74 81 -74 210q0 283 344 344q130 23 328 33v55q0 134 -59 187q-51 47 -162 47q-201 0 -254 -199l-158 49q87 275 416 275q257 0 338 -154q125 154 328 154q210 0 332 -160q110 -144 110 -375v-37h-733
q0 -202 94 -309q81 -90 213 -90q207 0 266 213l154 -51q-103 -287 -422 -287q-275 0 -395 225zM793 579q-144 -3 -291 -33q-219 -46 -219 -221q0 -93 59 -143q53 -45 142 -45q184 0 309 207v235zM1522 655q-13 168 -95 253q-71 73 -183 73q-130 0 -210 -100
q-69 -87 -79 -226h567zM957 1546h204l-202 -285h-105z" />
    <glyph glyph-name="uni1F70" unicode="&#x251;`" horiz-adv-x="1192" 
d="M997 1077v-786q0 -152 96 -152q28 0 66 11l-8 -129q-43 -7 -86 -7q-203 0 -226 187q-111 -197 -313 -197q-191 0 -302 163q-102 148 -102 390q0 261 140 416q116 128 278 128q192 0 299 -186l31 162h127zM829 764q-93 198 -256 198q-129 0 -207 -118q-74 -110 -74 -289
q0 -215 87 -324q71 -90 186 -90q167 0 264 209v414zM516 1546l103 -285h-105l-203 285h205z" />
    <glyph glyph-name="uni1F71" unicode="&#x251;&#x301;" horiz-adv-x="1192" 
d="M997 1077v-786q0 -152 96 -152q28 0 66 11l-8 -129q-43 -7 -86 -7q-203 0 -226 187q-111 -197 -313 -197q-191 0 -302 163q-102 148 -102 390q0 261 140 416q116 128 278 128q192 0 299 -186l31 162h127zM829 764q-93 198 -256 198q-129 0 -207 -118q-74 -110 -74 -289
q0 -215 87 -324q71 -90 186 -90q167 0 264 209v414zM610 1546h205l-203 -285h-104z" />
    <glyph glyph-name="uni1F72" unicode="&#x25b;`" horiz-adv-x="1044" 
d="M504 1546l102 -285h-104l-203 285h205zM953 889l-162 -52q-59 148 -252 148q-111 0 -174 -46q-57 -42 -57 -110q0 -89 84 -138q77 -44 208 -44h99v-123h-111q-164 0 -242 -63q-61 -50 -61 -133q0 -95 74 -148q65 -47 172 -47q116 0 183 38q60 36 101 114l156 -64
q-64 -120 -183 -170q-100 -41 -255 -41q-213 0 -322 93q-94 81 -94 220q0 112 80 183q70 61 188 80v8q-239 46 -239 244q0 133 122 207q104 63 271 63q310 0 414 -219z" />
    <glyph glyph-name="uni1F73" unicode="&#x25b;&#x301;" horiz-adv-x="1044" 
d="M602 1546h205l-203 -285h-104zM953 889l-162 -52q-59 148 -252 148q-111 0 -174 -46q-57 -42 -57 -110q0 -89 84 -138q77 -44 208 -44h99v-123h-111q-164 0 -242 -63q-61 -50 -61 -133q0 -95 74 -148q65 -47 172 -47q116 0 183 38q60 36 101 114l156 -64
q-64 -120 -183 -170q-100 -41 -255 -41q-213 0 -322 93q-94 81 -94 220q0 112 80 183q70 61 188 80v8q-239 46 -239 244q0 133 122 207q104 63 271 63q310 0 414 -219z" />
    <glyph glyph-name="uni4E5A" unicode="&#xe0100;" 
d="M546 1378v-1079q0 -93 22 -135q19 -38 66 -61q70 -35 420 -35q455 0 536 76q73 67 89 317q43 -34 96 -55q32 -14 32 -30q0 -5 -2 -22q-31 -252 -131 -325q-112 -84 -620 -84q-253 0 -357 10q-100 10 -153 37q-71 35 -101 97q-30 61 -30 167v1118q0 162 -12 236
q58 -3 141 -11q29 -3 29 -20q0 -12 -15 -37q-10 -20 -10 -164z" />
    <glyph glyph-name="uni4EBB" unicode="&#xe0100;" 
d="M311 680q660 336 1005 854q53 78 80 158q71 -29 119 -56q22 -12 22 -28q0 -14 -25 -33q-20 -14 -67 -84q-142 -212 -311 -381v-922l4 -317q0 -18 -18 -18h-103q-18 0 -18 18l4 317v578q0 72 4 223q-245 -220 -571 -402q-22 -12 -29 -12t-25 29q-32 48 -71 76z" />
    <glyph glyph-name="u20628" unicode="&#xe0100;" 
d="M449 1480v-348q0 -461 -45 -721q-53 -297 -209 -512q-15 -18 -23 -18t-24 16q-40 41 -80 62q167 185 219 483q43 258 43 690l-4 445q0 18 18 18l289 -4h717l293 4q18 0 18 -18l-4 -285v-56q0 -612 49 -866q64 -340 135 -340q57 0 72 328q16 -22 67 -59q29 -21 29 -44
q0 -6 -1 -12q-15 -205 -63 -286q-39 -66 -108 -66q-89 0 -148 121q-51 102 -92 311q-59 282 -59 961v196h-1089z" />
    <glyph glyph-name="uni5202" unicode="&#xe0100;" 
d="M624 676v563q0 207 -14 276q68 -3 137 -10q20 -3 20 -16q0 -9 -8 -33q-10 -31 -10 -213v-567l4 -267q0 -18 -18 -18h-97q-18 0 -18 18zM1446 1419v-1020l2 -309q0 -119 -57 -160q-35 -24 -88 -32q-49 -7 -155 -7h-50q-31 0 -36 6q-5 5 -11 31q-13 59 -43 101
q107 -13 207 -13q64 0 83 21q19 20 19 78v1302q0 169 -12 248q65 -3 139 -10q25 -3 25 -19q0 -12 -12 -41q-11 -25 -11 -176z" />
    <glyph glyph-name="uni353E" unicode="&#xe0100;" 
d="M463 1462v-1194q0 -115 47 -156q63 -57 608 -57q482 0 576 70q75 53 92 270q35 -35 88 -61q32 -16 32 -40q0 -6 -1 -16q-29 -200 -129 -264q-121 -82 -660 -82q-367 0 -523 20q-134 17 -179 56q-78 60 -78 231v1022l-4 307q0 19 18 19l312 -4h684l293 4q18 0 18 -19
q-6 -70 -6 -151q-6 -428 -59 -659q-31 -133 -162 -142q-37 -4 -89 -4q-65 0 -149 6q-25 2 -33 10q-7 8 -10 31q-7 64 -27 96q134 -20 248 -20q84 0 107 104q47 232 47 623h-1061z" />
    <glyph glyph-name="uni2E8C" unicode="&#xe0101;" 
d="M235 1058l78 45q8 5 13 5q7 0 14 -10q171 -230 297 -498q3 -7 3 -11q0 -6 -12 -14l-90 -53q-8 -4 -11 -4q-6 0 -11 12q-117 275 -287 506q-5 7 -5 11t11 11zM935 680v369q0 157 -12 231q79 -3 139 -12q27 -4 27 -19q0 -2 -15 -41q-10 -26 -10 -159v-369l4 -227
q0 -19 -18 -19h-101q-18 0 -18 19zM1333 537q192 238 305 520q20 51 29 98q57 -21 120 -53q23 -13 23 -29q0 -13 -16 -26q-25 -21 -39 -54q-118 -264 -287 -492q-19 -22 -25 -22q-5 0 -28 16q-38 29 -82 42z" />
    <glyph glyph-name="u2D544" unicode="&#xe0102;" 
d="M803 1186l86 33q7 2 11 2q8 0 15 -11q128 -215 224 -510q2 -6 2 -10q0 -8 -15 -14l-96 -37q-9 -3 -11 -3q-6 0 -9 11q-91 309 -213 516q-6 8 -6 12q0 6 12 11zM217 1081l82 43q8 4 13 4q7 0 14 -10q159 -225 270 -479q3 -7 3 -11q0 -8 -11 -14l-94 -51q-8 -4 -12 -4
q-6 0 -11 12q-111 279 -260 488q-5 7 -5 11q0 6 11 11zM1325 532q208 257 328 560q18 40 28 94q74 -25 119 -51q27 -14 27 -29q0 -10 -18 -25q-22 -18 -39 -53q-127 -290 -308 -530q-19 -23 -24 -23q-6 0 -31 18q-42 29 -82 39z" />
    <glyph glyph-name="u2D544" unicode="&#xe0100;" 
d="M803 1186l86 33q7 2 11 2q8 0 15 -11q128 -215 224 -510q2 -6 2 -10q0 -8 -15 -14l-96 -37q-9 -3 -11 -3q-6 0 -9 11q-91 309 -213 516q-6 8 -6 12q0 6 12 11zM217 1081l82 43q8 4 13 4q7 0 14 -10q159 -225 270 -479q3 -7 3 -11q0 -8 -11 -14l-94 -51q-8 -4 -12 -4
q-6 0 -11 12q-111 279 -260 488q-5 7 -5 11q0 6 11 11zM1325 532q208 257 328 560q18 40 28 94q74 -25 119 -51q27 -14 27 -29q0 -10 -18 -25q-22 -18 -39 -53q-127 -290 -308 -530q-19 -23 -24 -23q-6 0 -31 18q-42 29 -82 39z" />
    <glyph glyph-name="uni5140" unicode="&#xe0100;" 
d="M1941 296q-19 -233 -102 -301q-79 -63 -297 -63q-185 0 -268 33q-51 21 -72 64q-20 45 -20 132v1225h-342v-352q0 -510 -151 -758q-128 -209 -437 -359q-21 -12 -31 -12q-12 0 -32 29q-28 43 -68 70q357 161 478 398q108 212 108 619v365h-250l-275 -4q-16 0 -16 14v101
q0 18 16 18l275 -4h1136l275 4q18 0 18 -18v-97q0 -18 -18 -18l-275 4h-278v-1182q0 -75 14 -104q12 -22 43 -33q49 -16 174 -16q155 0 209 47q51 48 66 297q29 -22 88 -43q34 -13 34 -37q0 -6 -2 -19z" />
    <glyph glyph-name="uni5C23" unicode="&#xe0100;" 
d="M1186 1542q-7 9 -7 13q0 8 43 35q43 26 53 26q6 0 13 -10q239 -320 606 -514q-37 -25 -74 -72q-16 -25 -26 -25q-6 0 -27 11q-324 188 -581 536zM1294 721v-490q0 -129 20 -153q26 -31 191 -31q173 0 229 53q34 34 47 115q8 50 13 168q33 -30 86 -43q24 -7 29 -11
q6 -5 6 -18q0 -5 -1 -16q-14 -216 -90 -289q-47 -47 -119 -64q-68 -16 -200 -16q-152 0 -214 13q-59 12 -87 44q-27 30 -35 82q-6 41 -6 134v520q0 235 -12 309q98 -8 143 -14q25 -4 25 -17q0 -12 -12 -41q-13 -27 -13 -235zM178 1053q300 154 477 420q59 86 80 153
q75 -34 117 -63q20 -15 20 -29t-23 -27q-19 -10 -49 -53q-199 -304 -485 -477q-25 -14 -28 -14q-8 0 -29 26q-33 42 -80 64zM137 -27q145 56 272 148q98 71 146 135q127 177 139 510q2 42 2 82q0 104 -12 180q82 -4 139 -12q29 -4 29 -21q0 -4 -12 -41q-9 -28 -15 -198
q-9 -238 -63 -390q-36 -101 -103 -188q-128 -175 -407 -301q-17 -8 -27 -8t-25 29q-24 43 -63 75z" />
    <glyph glyph-name="uni5C22" unicode="&#xe0100;" 
d="M1878 1095q0 -16 -16 -16l-277 4h-583q-32 -319 -132 -553q-97 -220 -251 -376q-138 -138 -351 -257q-21 -12 -30 -12q-10 0 -31 25q-42 48 -82 71q250 120 402 274q133 136 221 328q93 213 120 500h-389l-276 -4q-19 0 -19 16v97q0 16 19 16l276 -4h400q6 112 6 225
q0 148 -17 246q87 -4 154 -16q29 -7 29 -21t-15 -43q-20 -45 -20 -168q0 -109 -6 -223h575l277 4q16 0 16 -16v-97zM1921 244q-17 -195 -92 -270q-74 -74 -373 -74q-170 0 -243 13q-65 11 -95 38q-32 28 -43 68q-10 41 -10 133v538q0 164 -12 225q82 -3 139 -12
q27 -3 27 -16q0 -8 -13 -37q-12 -27 -12 -158v-506q0 -111 25 -132q38 -33 252 -33q223 0 268 51q54 57 57 264q54 -33 93 -45q33 -11 33 -33q0 -4 -1 -14z" />
    <glyph glyph-name="uni5DF3" unicode="&#xe0100;" 
d="M1907 309q-32 -198 -129 -264q-124 -80 -658 -80q-338 0 -496 19q-145 17 -190 55q-42 34 -57 88q-13 48 -13 135v1069l-4 217q0 17 16 17l291 -4h693l291 4q16 0 16 -17l-4 -217v-398l4 -211q0 -16 -16 -16h-101q-16 0 -16 16v115h-1041v-544q0 -116 39 -150
q61 -55 588 -55q477 0 576 70q74 50 92 270q43 -37 86 -60q35 -19 35 -36q0 -8 -2 -23zM1534 956v486h-1041v-486h1041z" />
    <glyph glyph-name="uni5E7A" unicode="&#xe0100;" 
d="M1839 8q3 -7 3 -10q0 -7 -22 -18l-67 -35q-20 -10 -27 -10q-8 0 -12 10q-64 143 -115 233q-537 -97 -1253 -172q-56 -8 -76 -15q-3 -1 -19 -9q-10 -5 -16 -5q-17 0 -28 31q-15 46 -29 125q135 0 225 8l103 9q207 219 370 421q-275 305 -555 525q-7 5 -7 10t20 24l45 44
q17 15 22 15q4 0 10 -6q62 -49 177 -147q163 212 284 461q42 87 58 148q74 -26 126 -56q25 -12 25 -28t-22 -31q-11 -8 -64 -98q-142 -253 -313 -480q120 -109 276 -278q144 179 297 409q74 112 115 220q92 -48 125 -70q22 -15 22 -29q0 -17 -25 -30q-25 -14 -85 -101
q-415 -585 -737 -905q492 54 866 119q-81 133 -186 270q-5 6 -5 10q0 8 27 21l57 28q14 8 18 8q5 0 13 -10q224 -284 379 -606z" />
    <glyph glyph-name="uni5F51" unicode="&#xe0100;" 
d="M1921 -35q0 -16 -14 -16l-266 4h-1237l-265 -4q-16 0 -16 16v97q0 16 16 16l265 -4h843q35 139 90 389h-776l-43 -123q-6 -18 -24 -18q-6 0 -19 2l-71 8q-25 2 -25 9q0 4 3 9q200 524 337 1184q15 96 15 139q0 8 -1 17q70 -8 135 -21q23 -5 23 -20q0 -12 -16 -35
q-11 -14 -27 -96q-43 -190 -57 -250h567l242 4q18 0 18 -18q-17 -93 -33 -193q-79 -481 -202 -987h258l266 4q14 0 14 -16v-97zM1466 1149h-704q-76 -304 -162 -567h762q71 348 104 567z" />
    <glyph glyph-name="uni2E95" unicode="&#xe0101;" 
d="M316 1433v93q0 18 18 18l289 -4h715l292 4q19 0 19 -18l-4 -383v-287h20l265 4q18 0 18 -18v-93q0 -18 -18 -18l-265 4h-20v-467l4 -383q0 -18 -18 -18h-97q-18 0 -18 18v115h-926l-289 -4q-18 0 -18 18v93q0 18 18 18l289 -4h926v614h-1118l-265 -4q-18 0 -18 18v93
q0 18 18 18l265 -4h1118v563h-893l-289 -4q-18 0 -18 18z" />
    <glyph glyph-name="uni5FC4" unicode="&#xe0100;" 
d="M1204 1241l74 31q6 3 11 3q7 0 14 -13q65 -126 139 -334q3 -8 3 -12q0 -7 -13 -13l-84 -35q-8 -2 -11 -2q-8 0 -12 13q-64 212 -129 338q-4 8 -4 12q0 7 12 12zM711 1264l84 -29q13 -4 13 -15q0 -3 -1 -10q-46 -235 -149 -409q-7 -10 -14 -10q-5 0 -13 4l-78 43
q-11 5 -11 13q0 6 5 13q103 165 143 387q2 14 11 14q3 0 10 -1zM946 229v1188q0 186 -14 279q73 -3 143 -10q25 -4 25 -19q0 -9 -11 -37q-12 -34 -12 -209v-1192l4 -358q0 -18 -18 -18h-103q-18 0 -18 18z" />
    <glyph glyph-name="uni38FA" unicode="&#xe0100;" 
d="M494 1008l86 -31q13 -5 13 -11q0 -3 -2 -12q-86 -262 -263 -475q-8 -10 -15 -10q-5 0 -14 6l-81 51q-10 7 -10 12t8 13q189 202 258 444q4 14 10 14q3 0 10 -1zM1438 1001l70 41q8 4 13 4q7 0 15 -8q181 -187 322 -430q5 -8 5 -12q0 -7 -11 -15l-84 -51q-8 -5 -12 -5
q-7 0 -13 11q-112 226 -309 445q-7 6 -7 9q0 4 11 11zM1092 975l78 31q6 2 11 2q7 0 15 -13q125 -207 197 -442q2 -9 2 -12q0 -7 -12 -13l-88 -36q-7 -3 -10 -3q-7 0 -11 15q-69 239 -189 448q-5 9 -5 12q0 6 12 11zM906 1098v-406l2 -221q0 -104 -59 -139q-50 -30 -228 -33
q-29 0 -34 6q-5 5 -11 33q-12 54 -45 92q95 -11 151 -11q17 0 31 1q66 3 66 74v604q0 159 -12 221q26 -2 137 -14q25 -3 25 -19t-10 -37q-13 -31 -13 -151z" />
    <glyph glyph-name="uni624C" unicode="&#xe0100;" 
d="M1524 899q-8 -49 -8 -86q0 -29 -5 -35q-5 -5 -28 -14q-93 -33 -393 -123v-252l2 -311q0 -121 -53 -160q-50 -37 -193 -37h-39q-29 0 -35 6q-5 5 -12 31q-17 61 -43 98q71 -8 170 -8q47 0 62 25q14 21 14 73v498q-208 -59 -328 -90q-50 -13 -78 -33q-16 -12 -28 -12
q-14 0 -23 18q-27 65 -45 121q55 6 186 37q104 24 316 82v447h-168l-266 -5q-19 0 -19 19v84q0 18 19 18l266 -4h168v160q0 160 -17 248q70 -3 142 -11q27 -3 27 -18q0 -11 -13 -39q-12 -27 -12 -178v-162h151l267 4q18 0 18 -18v-84q0 -19 -18 -19l-267 5h-151v-412
q297 85 434 137z" />
    <glyph glyph-name="uni6535" unicode="&#xe0100;" 
d="M1954 14q-34 -37 -63 -96q-18 -35 -29 -35q-4 0 -29 8q-503 181 -801 447q-288 -273 -790 -441q-29 -8 -31 -8q-12 0 -26 29q-24 44 -68 78q304 88 512 205q170 95 309 227q-145 152 -239 301q-87 137 -162 319q-130 -194 -277 -326q-23 -16 -26 -16q-9 0 -31 23
q-32 32 -74 51q198 159 350 405q126 202 191 414q17 51 20 105q63 -10 135 -39q23 -8 23 -25q0 -13 -18 -28q-16 -13 -48 -92q-49 -123 -110 -242h877l284 4q17 0 17 -16v-97q0 -16 -17 -16l-284 4h-58q-115 -447 -368 -727q308 -261 831 -416zM1354 1157h-727
q89 -222 184 -371q88 -138 215 -266q226 249 328 637z" />
    <glyph glyph-name="uni65E1" unicode="&#xe0100;" 
d="M1876 823q0 -16 -16 -16l-289 4h-512q-53 -176 -127 -301q-124 -215 -295 -361q-148 -125 -383 -246q-21 -12 -32 -12q-12 0 -33 27q-43 50 -80 72q484 211 709 581q59 101 104 240h-498q-26 -72 -55 -133q-7 -15 -18 -15q-5 0 -19 3l-71 14q-23 4 -23 12q0 5 4 13
q103 193 172 452q16 56 25 151q75 -10 127 -22q20 -5 20 -21q0 -11 -18 -32q-16 -21 -33 -84q-33 -121 -68 -219h488q57 231 67 503h-454l-285 -4q-16 0 -16 16v93q0 16 16 16l285 -4h925l287 4q17 0 17 -16v-93q0 -16 -17 -16l-287 4h-340q-14 -287 -65 -503h483l289 4
q16 0 16 -16v-95zM1905 252q-20 -200 -97 -268q-79 -76 -350 -76q-278 0 -338 51q-33 28 -43 68q-10 41 -10 135v317q0 162 -12 223q62 -2 139 -10q25 -3 25 -18q0 -8 -13 -37q-10 -29 -10 -158v-284q0 -116 25 -135q39 -31 249 -31q205 0 254 49q55 62 58 268
q34 -23 88 -43q35 -12 35 -33v-18z" />
    <glyph glyph-name="uni6B7A" unicode="&#xe0100;" 
d="M201 575q375 178 572 504q18 28 45 90q59 -21 106 -51q21 -12 21 -25q0 -10 -19 -22t-43 -49q-13 -21 -43 -64h207v484q0 166 -14 248q82 -4 139 -13q29 -3 29 -16q0 -10 -5 -22q-6 -15 -7 -19q-15 -39 -15 -168v-94h403l236 4q18 0 18 -18v-87q0 -18 -18 -18l-236 4
h-403v-285h313q33 0 45 6t23 6q18 0 55 -37q35 -35 35 -49q0 -13 -18 -25q-19 -11 -37 -45q-226 -410 -528 -622q-282 -199 -756 -326q-19 -4 -25 -4q-12 0 -27 31q-25 51 -59 80q492 122 772 303q-149 165 -318 293q-9 6 -9 10t10 12l61 51q7 7 14 7q6 0 17 -7
q163 -119 330 -289q226 181 391 494h-709q-182 -209 -436 -357q-21 -10 -27 -10q-7 0 -24 27q-35 46 -66 68z" />
    <glyph glyph-name="uni6BCD" unicode="&#xe0100;" 
d="M1167 496q6 -7 6 -11q0 -6 -16 -22l-41 -39q-20 -19 -25 -19q-4 0 -12 9q-126 147 -268 252q-10 7 -10 12q0 6 16 20l41 39q13 12 18 12q4 0 15 -8q163 -119 276 -245zM1231 1120q7 -8 7 -13q0 -6 -14 -17l-45 -41q-19 -18 -24 -18t-13 9q-122 149 -260 244q-10 7 -10 12
q0 6 19 21l36 33q15 15 23 15q5 0 12 -5q148 -105 269 -240zM1968 839q0 -16 -17 -16l-251 4h-62q-26 -307 -53 -515l262 4q16 0 16 -16v-89q0 -16 -16 -16l-279 4q-25 -175 -75 -241q-61 -81 -191 -81q-98 0 -180 8q-30 3 -37 9q-5 5 -12 28q-12 53 -35 92q141 -20 250 -20
q74 0 111 60q28 45 45 145h-1045q-24 -86 -35 -119q-5 -17 -22 -17q-10 0 -51 5q-67 8 -67 19q0 3 3 12q57 153 70 209q68 281 114 519h-43l-254 -4q-16 0 -16 16v89q0 16 16 16l254 -4h64q15 82 47 297q27 186 27 313q0 19 18 19l281 -4h575l283 4q18 0 18 -19l-10 -180
q-5 -103 -27 -430h56l251 4q17 0 17 -16v-89zM1513 827h-977q-42 -246 -106 -515h1030q33 267 53 515zM1548 1452h-920q-34 -298 -71 -512h964q17 227 27 512z" />
    <glyph glyph-name="uni6C11" unicode="&#xe0100;" 
d="M1878 213q-23 -178 -78 -253q-48 -64 -129 -64q-110 0 -239 112q-121 105 -213 275q-82 153 -133 333l-576 -16v-496q318 79 596 178q-14 -48 -16 -77q-4 -34 -11 -42q-6 -7 -32 -15q-330 -117 -732 -213q-53 -13 -67 -25q-17 -14 -35 -14q-12 0 -23 25q-14 38 -30 122
q89 3 194 27l29 6v1118l-4 354q0 17 16 17l308 -4h677l306 4q16 0 16 -17l-4 -168v-157l4 -169q0 -16 -16 -16l-306 4h-241q13 -155 45 -311l325 10q130 4 224 10q13 1 49 3q13 1 16 1q17 0 17 -16l2 -90q0 -16 -17 -16l-49 -1q-96 0 -239 -4l-297 -8q37 -131 106 -262
q75 -150 188 -246q91 -77 156 -77q91 0 103 297q37 -38 75 -56q37 -20 37 -40q0 -8 -2 -23zM1573 1151v297h-1063v-297h1063zM1059 729q-32 146 -47 313h-502v-330z" />
    <glyph glyph-name="uni6C35" unicode="&#xe0100;" 
d="M709 1073l55 62q9 9 16 9q4 0 13 -3q200 -96 364 -230q9 -7 9 -13q0 -5 -7 -13l-61 -74q-8 -9 -13 -9q-4 0 -12 7q-145 131 -360 242q-11 5 -11 11q0 5 7 11zM825 1577l62 63q9 10 17 10q5 0 11 -3q194 -106 350 -232q10 -8 10 -13q0 -4 -7 -13l-62 -74q-8 -10 -13 -10
q-4 0 -11 7q-139 127 -352 242q-11 6 -11 12q0 4 6 11zM1149 586q33 -41 66 -74q20 -20 20 -29q0 -8 -10 -26q-131 -239 -306 -470q-44 -56 -53 -84q-7 -20 -24 -20q-12 0 -29 14q-52 40 -92 83q56 46 131 135q190 258 297 471z" />
    <glyph glyph-name="uni2EA2" unicode="&#xe0101;" 
d="M252 1296l59 56q8 7 13 7t14 -8q187 -157 363 -380q5 -8 5 -12q0 -6 -10 -15l-69 -65q-8 -8 -12 -8t-11 10q-169 232 -352 391q-8 7 -8 12t8 12zM1190 610q-7 7 -7 12q0 8 36 44q35 35 43 35q4 0 12 -7q283 -265 625 -411q-37 -27 -70 -80q-18 -27 -25 -27t-28 12
q-335 175 -586 422zM1192 954q230 179 379 369q25 32 53 96q68 -41 107 -78q16 -16 16 -28q0 -14 -22 -27q-39 -21 -93 -84q-129 -152 -331 -309q-20 -16 -27 -16t-25 26q-22 33 -57 51zM1075 1450v-961v-55l6 -367q0 -116 -74 -155q-56 -33 -250 -33q-28 0 -34 6
q-5 5 -13 31q-22 66 -47 96q100 -8 148 -8q87 0 112 21q25 20 25 79v1346q0 179 -14 246q61 -3 139 -10q25 -4 25 -19q0 -10 -13 -43q-10 -28 -10 -174zM809 692q0 -44 10 -92q5 -21 5 -28q0 -11 -25 -29q-223 -159 -498 -301q-61 -33 -74 -48q-13 -16 -24 -16q-14 0 -25 21
q-20 33 -55 112q85 26 150 62q305 148 536 319z" />
    <glyph glyph-name="uni706C" unicode="&#xe0100;" 
d="M1540 1034l70 41q7 5 13 5q8 0 15 -11q146 -213 242 -482q2 -6 2 -11q0 -9 -12 -17l-82 -49q-8 -6 -13 -6q-6 0 -10 12q-93 278 -231 493q-5 8 -5 12q0 5 11 13zM1126 1014l78 20q7 2 10 2q9 0 15 -14q84 -195 126 -459q1 -4 1 -6q0 -14 -17 -18l-90 -29q-6 -2 -10 -2
q-8 0 -10 14q-33 268 -115 471q-3 7 -3 10q0 6 15 11zM444 1054l78 -39q12 -6 12 -14q0 -3 -2 -10q-107 -323 -266 -500q-9 -9 -16 -9q-6 0 -13 7l-75 68q-8 7 -8 13t8 13q178 182 262 463q3 12 9 12q4 0 11 -4zM737 1010l78 12q5 1 8 1q10 0 14 -15q43 -168 62 -463
q0 -18 -19 -21l-90 -14q-3 -1 -6 -1q-12 0 -12 17q-3 266 -49 463q-2 6 -2 9q0 9 16 12z" />
    <glyph glyph-name="uniFA49" unicode="&#xe0101;" 
d="M836 938l74 29q6 2 10 2q8 0 16 -13q83 -132 160 -387q2 -7 2 -9q0 -7 -14 -13l-84 -35q-8 -3 -11 -3q-6 0 -10 14q-71 253 -149 392q-6 9 -6 13q0 5 12 10zM322 897l74 31q7 3 12 3q7 0 14 -12q102 -164 177 -413q2 -9 2 -12q0 -9 -13 -15l-84 -35q-7 -3 -10 -3
q-7 0 -10 14q-63 237 -168 419q-6 9 -6 13q0 5 12 10zM1264 464q184 236 285 486q21 48 26 96q73 -21 119 -47q20 -12 20 -23q0 -8 -23 -30q-12 -13 -32 -53q-108 -239 -272 -453q-19 -25 -25 -25t-29 16q-30 23 -69 33zM203 1145q414 0 807 43q266 26 471 74q111 27 158 51
q58 -37 107 -82q16 -14 16 -29q0 -20 -27 -20q-35 0 -84 -11q-318 -66 -612 -96q-323 -34 -740 -53q-11 -1 -17 -1q-15 0 -21 8q-3 5 -11 28q-19 53 -47 88z" />
    <glyph glyph-name="uniFA49" unicode="&#xfe00;" 
d="M836 938l74 29q6 2 10 2q8 0 16 -13q83 -132 160 -387q2 -7 2 -9q0 -7 -14 -13l-84 -35q-8 -3 -11 -3q-6 0 -10 14q-71 253 -149 392q-6 9 -6 13q0 5 12 10zM322 897l74 31q7 3 12 3q7 0 14 -12q102 -164 177 -413q2 -9 2 -12q0 -9 -13 -15l-84 -35q-7 -3 -10 -3
q-7 0 -10 14q-63 237 -168 419q-6 9 -6 13q0 5 12 10zM1264 464q184 236 285 486q21 48 26 96q73 -21 119 -47q20 -12 20 -23q0 -8 -23 -30q-12 -13 -32 -53q-108 -239 -272 -453q-19 -25 -25 -25t-29 16q-30 23 -69 33zM203 1145q414 0 807 43q266 26 471 74q111 27 158 51
q58 -37 107 -82q16 -14 16 -29q0 -20 -27 -20q-35 0 -84 -11q-318 -66 -612 -96q-323 -34 -740 -53q-11 -1 -17 -1q-15 0 -21 8q-3 5 -11 28q-19 53 -47 88z" />
    <glyph glyph-name="uni4E2C" unicode="&#xe0100;" 
d="M583 1335l66 58q8 7 14 7q5 0 15 -8q179 -149 340 -354q5 -7 5 -12t-9 -14l-74 -68q-8 -7 -13 -7q-6 0 -12 9q-148 210 -331 365q-8 8 -8 12q0 5 7 12zM1134 725v709q0 164 -14 262q79 -3 141 -13q22 -3 22 -18q0 -10 -10 -37q-10 -28 -10 -192v-1203l4 -362
q0 -18 -18 -18h-101q-18 0 -18 18l4 362v347q-208 -133 -428 -246q-49 -24 -76 -56q-13 -16 -24 -16q-16 0 -25 18q-37 74 -61 136q83 26 127 47q269 118 487 262z" />
    <glyph glyph-name="uni72AD" unicode="&#xe0100;" 
d="M1327 420q0 -319 -93 -435q-77 -96 -251 -96q-55 0 -129 4q-27 2 -34 9q-5 7 -11 32q-11 49 -37 95q119 -17 193 -17q136 0 186 87q53 90 53 317q0 199 -43 391q-191 -284 -501 -498q-22 -14 -25 -14q-8 0 -23 27q-25 44 -61 71q369 227 571 549q-40 126 -98 232
q-158 -155 -360 -285q-19 -12 -27 -12q-7 0 -25 26q-29 43 -61 66q222 130 412 313q-72 115 -154 215q-41 49 -61 71q-7 8 -7 13q0 9 44 34q42 23 55 23q6 0 16 -10q117 -137 195 -256q101 119 153 209q29 49 41 100q60 -27 109 -59q18 -12 18 -25q0 -15 -18 -24
q-25 -15 -58 -70q-75 -119 -182 -235q213 -376 213 -848z" />
    <glyph glyph-name="uni2EA9" unicode="&#xe0101;" 
d="M1602 434q-7 -46 -7 -88q0 -30 -6 -38q-5 -6 -28 -13q-518 -177 -963 -287q-58 -14 -78 -29q-18 -14 -29 -14q-13 0 -22 21q-20 44 -41 125q72 7 197 32q134 31 342 88v580h-158l-266 -4q-19 0 -19 18v84q0 19 19 19l266 -4h158v489h-197l-276 -4q-19 0 -19 18v87
q0 18 19 18l276 -4h531l276 4q18 0 18 -18v-87q0 -18 -18 -18l-276 4h-209v-489h168l266 4q18 0 18 -19v-84q0 -18 -18 -18l-266 4h-168v-543q240 71 510 166z" />
    <glyph glyph-name="u24D14" unicode="&#xe0100;" 
d="M852 1575h471q26 0 43 8q20 8 26 8q20 0 64 -41q47 -45 47 -64q0 -14 -25 -28q-18 -11 -69 -62q-147 -150 -283 -245q-4 -45 -4 -105v-202h176l164 4q18 0 18 -19v-82q0 -18 -18 -18l-164 4h-176v-512q204 70 358 137q-4 -31 -4 -61q0 -13 1 -23v-19q0 -20 -29 -32
q-355 -148 -789 -277q-66 -21 -80 -35t-28 -14t-23 18q-33 82 -45 124q156 31 170 34v775q0 157 -12 219q26 -1 74 -5q46 -3 59 -3q25 -4 25 -17q0 -10 -12 -39q-13 -28 -13 -145v-750q105 31 227 72v856q0 159 -14 221q10 -1 31 -2q42 -3 61 -4q126 94 235 213h-462
l-252 -4q-19 0 -19 18v82q0 19 19 19z" />
    <glyph glyph-name="uni7F52" unicode="&#xe0100;" 
d="M1661 432h-1278v-100q0 -19 -19 -19h-88q-18 0 -18 19l4 401v199l-4 291q0 18 18 18l293 -4h907l294 4q18 0 18 -18l-4 -246v-235l4 -400q0 -19 -18 -19h-91q-18 0 -18 19v90zM1302 541h359v585h-359v-585zM1185 541v585h-347v-585h347zM721 541v585h-338v-585h338z" />
    <glyph glyph-name="uni2EAC" unicode="&#xe0100;" 
d="M1505 242v354q0 137 -14 209q80 -3 137 -12q25 -3 25 -19q0 -8 -13 -37q-10 -25 -10 -139v-356l4 -222q0 -18 -18 -18h-97q-18 0 -18 18zM1362 1427h-676l-289 -4q-18 0 -18 18v95q0 18 18 18l289 -4h676l289 4q18 0 18 -18v-95q0 -18 -18 -18zM201 14q137 127 190 308
q41 142 41 356q0 79 -10 127q116 -9 129 -12q27 -7 27 -21q0 -10 -8 -31q-11 -20 -11 -71q-1 -246 -51 -404q-51 -166 -168 -291q-18 -18 -26 -18q-6 0 -29 16q-40 28 -84 41zM1081 977v-823l4 -271q0 -18 -18 -18h-105q-18 0 -18 18l4 271v823h-487l-277 -4q-18 0 -18 18
v94q0 19 18 19l277 -4h1132l277 4q18 0 18 -19v-94q0 -18 -18 -18l-277 4h-512z" />
    <glyph glyph-name="uni793B" unicode="&#xe0100;" 
d="M1078 689v-585l4 -232q0 -18 -19 -18h-98q-18 0 -18 18l4 232v522q-213 -170 -469 -303q-24 -10 -27 -10q-10 0 -25 27q-27 45 -63 75q328 146 607 387q242 208 372 426h-557l-266 -4q-19 0 -19 18v83q0 18 19 18l266 -4h160v129q0 165 -15 229q65 -2 139 -12
q25 -3 25 -16q0 -11 -12 -39q-10 -28 -10 -164v-127h288q30 0 43 8q14 8 23 8q17 0 59 -37q35 -32 35 -51q0 -18 -19 -31q-16 -11 -41 -53q-123 -200 -331 -399q203 -197 547 -336q-31 -26 -64 -80q-17 -29 -26 -29q-3 0 -27 10q-299 148 -485 340z" />
    <glyph glyph-name="u25AD7" unicode="&#xe0100;" 
d="M874 623q198 212 317 544q17 43 23 93q61 -10 117 -27q20 -7 20 -20q0 -16 -14 -27t-31 -53q-31 -82 -67 -160h428l223 4q18 0 18 -18v-76q0 -19 -18 -19l-223 4h-183q78 -141 132 -313q2 -8 2 -12q0 -9 -13 -12l-88 -31q-8 -3 -11 -3q-5 0 -9 13q-52 187 -144 358h-168
q-85 -164 -192 -289q-21 -20 -25 -20t-28 21q-33 30 -66 43zM63 623q237 234 367 528q24 54 32 107q65 -12 123 -31q23 -7 23 -21t-19 -26q-17 -12 -32 -47q-41 -88 -82 -160h297l188 4q18 0 18 -18v-76q0 -19 -18 -19l-188 4h-99q77 -135 137 -313q2 -6 2 -10
q0 -10 -14 -14l-88 -31q-9 -2 -12 -2q-7 0 -10 13q-69 220 -142 357h-135q-103 -162 -231 -296q-21 -21 -25 -21t-26 23q-40 39 -66 49z" />
    <glyph glyph-name="uni7F53" unicode="&#xe0100;" 
d="M594 968l49 64q7 10 15 10q6 0 14 -4q238 -130 399 -229q104 98 180 202q53 74 68 113q63 -23 113 -51q16 -8 16 -21q0 -17 -23 -26q-12 -7 -67 -74q-83 -111 -187 -209q188 -123 349 -252q8 -6 8 -12t-6 -15l-54 -69q-6 -10 -12 -10q-5 0 -14 7q-182 148 -363 269
q-196 -164 -463 -295q-20 -10 -26 -10q-8 0 -29 27q-29 38 -63 61q257 104 481 283q-178 110 -381 219q-10 5 -10 10q0 4 6 12zM387 1179v-868q0 -19 -18 -19h-93q-18 0 -18 19l4 430v221l-4 318q0 18 18 18l293 -4h908l293 4q18 0 18 -18l-4 -271v-260l4 -426
q0 -19 -18 -19h-93q-18 0 -18 19v856h-1272z" />
    <glyph glyph-name="u2626A" unicode="&#xe0100;" 
d="M387 1157v-811q0 -18 -18 -18h-93q-18 0 -18 18l4 408v204l-4 296q0 18 18 18l293 -4h908l293 4q18 0 18 -18l-4 -255v-241l4 -408q0 -18 -18 -18h-91q-18 0 -18 18v807h-436v-416q0 -55 20 -73q19 -18 109 -18q84 0 115 31q33 33 36 165q29 -23 72 -37q33 -11 33 -27
q0 -7 -2 -22q-12 -117 -53 -162q-54 -59 -205 -59q-138 0 -180 24q-35 20 -49 51q-13 33 -13 94v449h-225q-5 -285 -94 -438q-77 -134 -259 -244q-21 -12 -26 -12q-8 0 -27 25q-29 39 -65 61q208 111 282 256q63 126 68 352h-375z" />
    <glyph glyph-name="uni2EB7" unicode="&#xe0100;" 
d="M541 1476l78 37q8 4 13 4q7 0 15 -10q110 -136 174 -270q4 -7 4 -11q0 -8 -12 -14l-84 -41q-7 -4 -11 -4q-6 0 -11 12q-75 166 -170 275q-6 7 -6 11q0 6 10 11zM1612 221h-1175l-273 -4q-18 0 -18 18v89q0 18 18 18l273 -4h510v292h-291l-291 -4q-18 0 -18 18v85
q0 18 18 18l291 -4h291v275h-393l-287 -4q-19 0 -19 18v87q0 18 19 18l287 -4h585q114 152 193 301q23 46 39 96q69 -20 122 -45q25 -11 25 -25q0 -13 -21 -26q-19 -15 -41 -48q-77 -121 -176 -253h222l286 4q19 0 19 -18v-87q0 -18 -19 -18l-286 4h-424v-275h325l291 4
q19 0 19 -18v-85q0 -18 -19 -18l-291 4h-325v-292h534l273 4q18 0 18 -18v-89q0 -18 -18 -18z" />
    <glyph glyph-name="uni8002" unicode="&#xe0100;" 
d="M1337 784h293l270 4q18 0 18 -18v-83q0 -18 -18 -18l-270 4h-414q-425 -344 -1002 -565q-24 -8 -26 -8q-10 0 -27 29q-25 43 -61 73q534 176 932 471h-613l-270 -4q-19 0 -19 18v83q0 18 19 18l270 -4h459v295h-250l-272 -4q-19 0 -19 18v81q0 18 19 18l272 -4h250v84
q0 153 -14 231q78 -3 137 -12q25 -3 25 -16q0 -10 -10 -37q-13 -37 -13 -164v-86h117l272 4q19 0 19 -18v-81q0 -18 -19 -18l-272 4h-117v-295h166q210 176 405 424q57 73 82 138q66 -28 117 -62q21 -13 21 -28q0 -11 -21 -23q-27 -14 -88 -84q-159 -195 -348 -365z" />
    <glyph glyph-name="uni2EBC" unicode="&#xe0101;" 
d="M1538 1286v-942l2 -275q0 -102 -53 -141q-36 -28 -91 -36q-49 -7 -161 -7q-31 0 -36 6q-5 5 -11 33q-13 55 -41 92q84 -8 190 -8q74 0 74 86v1399h-762v-483q0 -473 -88 -720q-71 -202 -254 -400q-21 -21 -25 -21q-5 0 -28 20q-50 47 -88 58q218 204 290 441
q66 216 66 616v282l-4 306q0 18 18 18l271 -4h446l271 4q18 0 18 -18zM772 1180l37 61q8 12 18 12q4 0 11 -2q208 -75 444 -225q11 -7 11 -14q0 -5 -5 -13l-45 -73q-7 -11 -13 -11q-4 0 -11 5q-242 164 -440 237q-12 5 -12 10q0 4 5 13zM774 711l41 61q9 13 16 13q4 0 11 -3
q211 -88 440 -245q11 -8 11 -16q0 -6 -5 -13l-47 -74q-7 -11 -13 -11q-4 0 -11 5q-218 167 -436 260q-12 5 -12 11q0 4 5 12z" />
    <glyph glyph-name="u26951" unicode="&#xe0100;" 
d="M276 262v911q0 159 -14 238q67 -13 121 -37q218 81 411 192q66 40 92 78q63 -44 97 -78q16 -16 16 -28q0 -18 -27 -25q-20 -4 -106 -49q-201 -111 -465 -205v-432h324l178 4q18 0 18 -18v-89q0 -18 -18 -18l-178 4h-324v-534h326l178 4q18 0 18 -18v-89q0 -18 -18 -18
l-178 4h-326v-139q0 -19 -18 -19h-93q-18 0 -18 19zM1098 1337v89q0 18 18 18l209 -4h232l213 4q18 0 18 -18l-4 -337v-827l4 -336q0 -19 -18 -19h-93q-18 0 -18 19v133h-352l-185 -4q-18 0 -18 18v89q0 18 18 18l185 -4h352v534h-350l-185 -4q-18 0 -18 18v89q0 18 18 18
l185 -4h350v496h-334l-209 -4q-18 0 -18 18z" />
    <glyph glyph-name="uni8279" unicode="&#xe0100;" 
d="M663 909v70q0 166 -12 219q84 -4 131 -12q25 -4 25 -17q0 -9 -10 -26q-13 -25 -13 -162v-72h459v70q0 166 -14 219q85 -3 132 -12q25 -4 25 -17q0 -9 -10 -26q-12 -25 -12 -162v-72h260l270 4q19 0 19 -18v-89q0 -18 -19 -18l-270 4h-260v-68l4 -202q0 -19 -18 -19h-93
q-18 0 -18 19l4 202v68h-459v-68l4 -202q0 -19 -18 -19h-92q-19 0 -19 19l4 202v68h-243l-271 -4q-18 0 -18 18v89q0 18 18 18l271 -4h243z" />
    <glyph glyph-name="uniFA5E" unicode="&#xe0102;" 
d="M1421 909h232l241 4q19 0 19 -18v-87q0 -18 -19 -18l-241 4h-232v-70l4 -202q0 -19 -18 -19h-92q-19 0 -19 19l4 202v70l-227 -4q-18 0 -18 18v87q0 18 18 18l227 -4v70q0 166 -14 219q85 -3 133 -12q25 -4 25 -17q0 -9 -10 -26q-13 -25 -13 -162v-72zM721 794v-70
l4 -202q0 -19 -19 -19h-92q-18 0 -18 19l4 202v70h-213l-238 -4q-18 0 -18 18v87q0 18 18 18l238 -4h213v70q0 166 -12 219q83 -4 131 -12q24 -4 24 -17q0 -9 -10 -26q-12 -25 -12 -162v-72l227 4q19 0 19 -18v-87q0 -18 -19 -18z" />
    <glyph glyph-name="uniFA5E" unicode="&#xfe01;" 
d="M1421 909h232l241 4q19 0 19 -18v-87q0 -18 -19 -18l-241 4h-232v-70l4 -202q0 -19 -18 -19h-92q-19 0 -19 19l4 202v70l-227 -4q-18 0 -18 18v87q0 18 18 18l227 -4v70q0 166 -14 219q85 -3 133 -12q25 -4 25 -17q0 -9 -10 -26q-13 -25 -13 -162v-72zM721 794v-70
l4 -202q0 -19 -19 -19h-92q-18 0 -18 19l4 202v70h-213l-238 -4q-18 0 -18 18v87q0 18 18 18l238 -4h213v70q0 166 -12 219q83 -4 131 -12q24 -4 24 -17q0 -9 -10 -26q-12 -25 -12 -162v-72l227 4q19 0 19 -18v-87q0 -18 -19 -18z" />
    <glyph glyph-name="uniFA5D" unicode="&#xe0101;" 
d="M1221 724v255q0 166 -15 219q85 -3 133 -12q25 -4 25 -17q0 -10 -10 -26q-12 -25 -12 -162v-72h358l195 4q18 0 18 -18v-89q0 -18 -18 -18l-195 4h-358v-68l4 -202q0 -19 -19 -19h-92q-18 0 -18 19zM684 909v70q0 166 -12 219q83 -4 131 -12q25 -4 25 -17q0 -10 -11 -26
q-12 -25 -12 -162v-257l4 -202q0 -19 -19 -19h-92q-18 0 -18 19l4 202v68h-342l-193 -4q-18 0 -18 18v89q0 18 18 18l193 -4h342z" />
    <glyph glyph-name="uniFA5D" unicode="&#xfe00;" 
d="M1221 724v255q0 166 -15 219q85 -3 133 -12q25 -4 25 -17q0 -10 -10 -26q-12 -25 -12 -162v-72h358l195 4q18 0 18 -18v-89q0 -18 -18 -18l-195 4h-358v-68l4 -202q0 -19 -19 -19h-92q-18 0 -18 19zM684 909v70q0 166 -12 219q83 -4 131 -12q25 -4 25 -17q0 -10 -11 -26
q-12 -25 -12 -162v-257l4 -202q0 -19 -19 -19h-92q-18 0 -18 19l4 202v68h-342l-193 -4q-18 0 -18 18v89q0 18 18 18l193 -4h342z" />
    <glyph glyph-name="uni864E" unicode="&#xe0100;" 
d="M1894 1208q0 -16 -14 -24t-35 -43q-56 -90 -121 -170q-20 -22 -25 -22q-8 0 -33 18q-32 20 -80 31q90 89 144 182h-1294v-254q0 -311 -39 -524q-49 -289 -219 -499q-16 -23 -25 -23q-6 0 -28 22q-33 42 -68 62q171 184 221 483q35 220 35 499l-4 328q0 16 16 16l307 -4
h289v232q0 122 -14 194q72 -3 136 -12q23 -4 23 -17q0 -8 -12 -37q-10 -20 -10 -104h360l223 4q17 0 17 -16v-82q0 -16 -17 -16l-223 4h-360v-150h700q20 0 33 6q16 8 23 8q18 0 57 -39q37 -36 37 -53zM1730 811q-19 -125 -88 -168q-77 -49 -354 -49q-271 0 -350 22
q-72 18 -72 123v111l-66 -6q-169 -18 -250 -29q-5 -1 -7 -1q-11 0 -13 15l-8 80q-1 5 -1 8q0 11 17 11q74 0 254 18l74 6v33q0 84 -12 143q70 -3 126 -12q23 -3 23 -18q0 -8 -12 -33q-8 -16 -8 -70v-30l211 20q141 14 253 30q4 1 8 1q9 0 11 -15l8 -79q1 -5 1 -8
q0 -11 -17 -11q-56 0 -258 -20l-217 -23v-67q0 -46 10 -63q9 -16 35 -20q92 -10 258 -10q227 0 276 35q34 23 45 68q5 24 10 98q36 -26 84 -41q32 -11 32 -25q0 -5 -3 -24zM1921 147q-11 -103 -31 -148q-17 -40 -55 -69q-75 -53 -326 -53q-192 0 -266 20q-88 27 -88 140v248
q0 162 -14 213q70 -3 127 -13q33 -6 33 -18q0 -18 -11 -33q-12 -22 -12 -143v-195q0 -84 55 -90q66 -12 184 -12q182 0 230 35q33 24 45 84q9 42 12 135q29 -25 90 -49q29 -13 29 -27q0 -5 -2 -25zM962 461q0 -11 -8 -25q-11 -17 -29 -111q-32 -181 -143 -292
q-112 -112 -324 -179q-22 -8 -30 -8q-13 0 -29 27q-31 45 -72 70q425 89 473 383q11 73 11 114q0 29 -5 62q80 -7 123 -19q33 -9 33 -22z" />
    <glyph glyph-name="uni8864" unicode="&#xe0100;" 
d="M1083 694v-590l4 -235q0 -19 -18 -19h-93q-18 0 -18 19l4 235v564q-248 -220 -500 -355q-24 -10 -26 -10q-9 0 -27 27q-31 42 -65 65q306 151 586 400q252 223 393 448h-543l-265 -4q-18 0 -18 18v83q0 18 18 18l265 -4h186v111q0 161 -16 231q44 -2 133 -10
q27 -4 27 -19q0 -10 -12 -39q-13 -27 -13 -159v-115h277q24 0 36 8q10 6 21 6q19 0 53 -39q33 -36 33 -49t-21 -27q-19 -13 -45 -51q-129 -197 -327 -395q66 -72 168 -156q101 95 198 225q29 36 47 84q54 -29 99 -67q14 -12 14 -25q0 -10 -20 -20q-23 -10 -43 -35
q-110 -133 -213 -225q119 -89 278 -181q-39 -27 -65 -65q-18 -27 -27 -27q-2 0 -27 14q-280 191 -438 365z" />
    <glyph glyph-name="uni8980" unicode="&#xe0100;" 
d="M723 1169h-305l-271 -4q-18 0 -18 18v85q0 18 18 18l271 -4h1208l270 4q18 0 18 -18v-85q0 -18 -18 -18l-270 4h-334v-241h158l295 4q18 0 18 -18l-4 -174v-162l4 -320q0 -18 -19 -18h-86q-18 0 -18 18v74h-1247v-82q0 -18 -18 -18h-84q-19 0 -19 18l4 324v131l-4 209
q0 18 18 18l296 -4h137v241zM840 1169v-241h335v241h-335zM1175 441v381h-335v-381h335zM1292 441h348v381h-348v-381zM723 441v381h-330v-381h330z" />
    <glyph glyph-name="uni897F" unicode="&#xe0100;" 
d="M1910 1447q0 -16 -16 -16l-269 4h-378v-315h225l289 4q16 0 16 -16l-4 -355v-342l4 -514q0 -16 -16 -16h-97q-16 0 -16 16v117h-1253v-121q0 -16 -16 -16h-95q-16 0 -16 16l4 516v305l-4 394q0 16 16 16l289 -4h193q4 131 4 213v102h-346l-269 -4q-16 0 -16 16v93
q0 16 16 16l269 -4h1201l269 4q16 0 16 -16v-93zM1648 129v878h-401v-325q0 -76 20 -90q22 -14 82 -14q68 0 92 18q21 16 28 70q6 45 7 159q31 -23 74 -39q25 -8 31 -17q6 -8 6 -28q0 -9 -1 -18q-9 -181 -65 -221q-53 -39 -166 -39q-118 0 -172 27q-59 29 -59 136v381h-244
q-21 -229 -95 -374q-73 -144 -216 -244q-17 -14 -29 -14t-34 22q-29 29 -72 47q169 100 246 255q59 121 77 308h-362v-878h1253zM1124 1120v315h-231v-108q0 -76 -4 -207h235z" />
    <glyph glyph-name="uni2EC6" unicode="&#xe0100;" 
d="M1721 1178l-4 -225v-597l2 -278q0 -96 -55 -137q-51 -43 -265 -43q-29 0 -36 6q-6 6 -13 35q-13 53 -39 94q120 -10 178 -10q66 0 89 23q20 21 20 73v266h-492v-156l4 -280q0 -17 -16 -17h-93q-16 0 -16 17l4 280v156h-483q-57 -278 -254 -488q-19 -22 -26 -22
q-4 0 -31 21q-44 34 -82 47q180 166 247 363q62 183 62 477v170l-2 166q-91 -72 -192 -136q-19 -12 -27 -12q-7 0 -25 29q-21 37 -53 66q344 179 553 517q45 76 59 133q60 -15 115 -37q24 -12 24 -27q0 -12 -20 -26q-27 -21 -47 -58l-31 -46h420q28 0 43 6q8 4 19 4
q16 0 57 -32q41 -39 41 -51t-27 -29q-30 -17 -51 -51q-63 -95 -127 -179h265l289 4q16 0 16 -16zM1598 487v253h-492v-253h492zM1598 842v244h-492v-244h492zM989 487v253h-448q-3 -156 -16 -253h464zM1165 1420h-460q-96 -131 -201 -228q45 -2 219 -2h289q77 101 153 230z
M989 842v244h-448v-244h448z" />
    <glyph glyph-name="u27FB7" unicode="&#xe0100;" 
d="M1493 322q-7 -25 -7 -57q0 -10 1 -20q2 -17 2 -22q0 -16 -35 -28q-337 -112 -786 -221q-61 -14 -80 -33q-12 -12 -26 -12t-23 18q-25 59 -43 121q87 11 158 25v516q0 149 -15 208q79 -3 129 -12q25 -4 25 -16q0 -8 -12 -37q-10 -30 -10 -143v-491q36 8 214 53v849h-90
l-227 -4q-18 0 -18 18l4 172v210l-4 172q0 18 18 18l227 -4h274l227 4q19 0 19 -18l-4 -172v-210l4 -172q0 -18 -19 -18l-227 4h-65v-309h206l138 4q18 0 18 -18v-78q0 -18 -18 -18l-138 4h-206v-401q197 51 389 118zM1294 1124v372h-525v-372h525z" />
    <glyph glyph-name="uniFA66" unicode="&#xe0101;" 
d="M248 1585l69 47q8 5 13 5q7 0 16 -9q131 -121 244 -287q6 -8 6 -13q0 -7 -10 -13l-74 -58q-9 -5 -12 -5q-4 0 -10 10q-112 169 -242 299q-8 8 -8 13t8 11zM607 698v-397q59 -140 180 -201q129 -57 375 -57q353 0 829 45q-26 -34 -41 -100q-5 -27 -11 -33q-7 -7 -32 -8
q-453 -25 -694 -25q-317 0 -473 72q-122 57 -197 203q-103 -92 -276 -212q-37 -24 -43 -35q-13 -18 -25 -18t-25 18q-29 45 -59 111q82 41 127 68q118 67 244 174v481h-176l-152 -4q-18 0 -18 19v88q0 18 18 18l152 -4h127l155 4q19 0 19 -18z" />
    <glyph glyph-name="uniFA66" unicode="&#xfe00;" 
d="M248 1585l69 47q8 5 13 5q7 0 16 -9q131 -121 244 -287q6 -8 6 -13q0 -7 -10 -13l-74 -58q-9 -5 -12 -5q-4 0 -10 10q-112 169 -242 299q-8 8 -8 13t8 11zM607 698v-397q59 -140 180 -201q129 -57 375 -57q353 0 829 45q-26 -34 -41 -100q-5 -27 -11 -33q-7 -7 -32 -8
q-453 -25 -694 -25q-317 0 -473 72q-122 57 -197 203q-103 -92 -276 -212q-37 -24 -43 -35q-13 -18 -25 -18t-25 18q-29 45 -59 111q82 41 127 68q118 67 244 174v481h-176l-152 -4q-18 0 -18 19v88q0 18 18 18l152 -4h127l155 4q19 0 19 -18z" />
    <glyph glyph-name="uni8FB6" unicode="&#xe0100;" 
d="M211 1149l49 59q7 9 15 9q6 0 14 -5q176 -107 276 -200q9 -9 9 -16q0 -6 -5 -13l-53 -70q-8 -9 -13 -9q-4 0 -12 7q-118 118 -279 215q-9 7 -9 11q0 3 8 12zM293 1579l49 55q9 9 16 9q5 0 13 -5q143 -89 253 -194q9 -9 9 -15t-6 -14l-56 -67q-7 -9 -12 -9t-12 7
q-110 117 -252 208q-10 7 -10 12t8 13zM614 551v-264q31 -82 71 -126q38 -43 105 -75q129 -57 416 -57q338 0 784 45q-28 -40 -39 -98q-5 -27 -12 -34q-8 -6 -31 -7q-426 -27 -661 -27q-351 0 -504 72q-128 59 -191 200q-112 -100 -268 -207q-39 -29 -45 -39
q-10 -20 -24 -20q-13 0 -25 18q-20 31 -57 109q64 27 127 65q105 65 233 179v319h-176l-152 -4q-18 0 -18 18v84q0 19 18 19l152 -4h127l156 4q18 0 18 -18z" />
    <glyph glyph-name="uni961D" unicode="&#xe0100;" 
d="M826 -142h-101q-18 0 -18 19l4 401v889l-4 406q0 18 18 18l207 -4h383q44 0 55 4q16 6 23 6q16 0 55 -39t39 -53q0 -18 -16 -29q-18 -13 -43 -66q-127 -263 -281 -489q210 -149 284 -266q62 -95 62 -215q0 -301 -407 -320h-10q-26 0 -35 37q-14 56 -41 92h35
q176 0 252 53q69 48 69 148q0 113 -83 213q-78 95 -275 240q179 260 313 569h-471v-1190l4 -405q0 -19 -18 -19z" />
    <glyph glyph-name="uni9577" unicode="&#xe0100;" 
d="M1962 -2q-32 -33 -55 -76q-19 -36 -36 -36q-7 0 -28 5q-375 101 -627 307q-230 188 -341 451h-252v-553q223 64 424 137q-6 -26 -6 -76q0 -31 -9 -40q-6 -6 -34 -17q-254 -95 -666 -203q-59 -15 -78 -31q-16 -12 -23 -12q-9 0 -20 18q-28 60 -45 122q126 18 219 41
l115 28v586h-90l-267 -4q-16 0 -16 16v89q0 16 16 16l267 -4h90v594l-4 229q0 16 16 16l285 -4h629l284 4q17 0 17 -16v-89q0 -16 -17 -16l-284 4h-803v-169h717l272 4q16 0 16 -16v-85q0 -16 -16 -16l-272 4h-717v-157h717l270 4q16 0 16 -16v-85q0 -16 -16 -16l-270 4
h-717v-178h1011l269 4q16 0 16 -16v-89q0 -16 -16 -16l-269 4h-636q93 -195 272 -340q156 109 260 207q36 36 57 76q53 -34 102 -74q15 -15 15 -25q0 -14 -25 -20q-30 -10 -67 -39q-152 -121 -260 -189q250 -168 610 -247z" />
    <glyph glyph-name="uni9578" unicode="&#xe0100;" 
d="M1339 384l64 41q9 6 14 6q7 0 15 -8q223 -215 390 -463q6 -8 6 -12q0 -6 -9 -12l-80 -53q-8 -5 -13 -5q-6 0 -14 11q-73 117 -133 194q-596 -92 -1184 -133q-72 -8 -84 -17q-24 -16 -35 -16q-19 0 -26 27q-16 52 -31 131q32 -1 68 -1q54 0 141 3l88 6q129 220 227 455
h-329l-269 -4q-18 0 -18 18v87q0 18 18 18l269 -4h100v678l-4 244q0 18 18 18l289 -4h604l285 4q18 0 18 -18v-87q0 -18 -18 -18l-285 4h-782v-192h700l269 4q18 0 18 -18v-85q0 -18 -18 -18l-269 4h-700v-194h700l269 4q18 0 18 -18v-85q0 -18 -18 -18l-269 4h-700v-209
h993l269 4q18 0 18 -18v-87q0 -18 -18 -18l-269 4h-747q-105 -246 -221 -447q475 36 839 89q-92 106 -167 182q-7 6 -7 11q0 4 10 11z" />
    <glyph glyph-name="uni2ED7" unicode="&#xe0101;" 
d="M1366 496h107l139 4q16 0 16 -17v-67q0 -17 -16 -17l-139 4h-107l-139 -4q-16 0 -16 17v67q0 17 16 17zM1366 760h107l139 4q16 0 16 -16v-68q0 -16 -16 -16l-139 4h-107l-139 -4q-16 0 -16 16v68q0 16 16 16zM565 496h111l133 4q17 0 17 -17v-67q0 -17 -17 -17l-133 4
h-111l-131 -4q-16 0 -16 17v67q0 17 16 17zM565 754h111l133 4q17 0 17 -17v-67q0 -17 -17 -17l-133 5h-111l-131 -5q-16 0 -16 17v67q0 17 16 17zM287 920v-367q0 -18 -18 -18h-88q-19 0 -19 18l4 244v76l-4 137q0 18 18 18l281 -4h496v178h-352l-291 -4q-19 0 -19 18v83
q0 18 19 18l291 -4h846l290 4q19 0 19 -18v-83q0 -18 -19 -18l-290 4h-373v-178h512l281 4q18 0 18 -18l-4 -113v-100l4 -244q0 -18 -19 -18h-86q-18 0 -18 18v367h-688v-346l4 -238q0 -18 -18 -18h-93q-18 0 -18 18l4 238v346h-670z" />
    <glyph glyph-name="uni9752" unicode="&#xe0100;" 
d="M1576 55q0 -100 -47 -141t-258 -41q-33 0 -39 5q-7 6 -14 34q-11 45 -41 88q93 -8 192 -8q80 0 80 82v129h-849v-105l4 -227q0 -14 -16 -14h-97q-16 0 -16 14l4 223v450l-4 228q0 16 16 16l277 -4h513l277 4q18 0 18 -16l-4 -240v-241zM1449 303v139h-849v-139h849z
M1449 542v138h-849v-138h849zM1906 926q0 -16 -16 -16l-270 4h-1188l-271 -4q-16 0 -16 16v78q0 16 16 16l271 -4h514v148h-250l-285 -4q-16 0 -16 16v74q0 16 16 16l285 -4h250v139h-365l-286 -4q-17 0 -17 16v78q0 16 17 16l286 -4h365q0 147 -15 205q93 -4 135 -10
q25 -4 25 -17q0 -6 -12 -39q-10 -25 -10 -139h391l289 4q16 0 16 -16v-78q0 -16 -16 -16l-289 4h-391v-139h290l283 4q16 0 16 -16v-74q0 -16 -16 -16l-283 4h-290v-148h551l270 4q16 0 16 -16v-78z" />
    <glyph glyph-name="uni2EDD" unicode="&#xe0101;" 
d="M1098 156q-11 -38 -11 -72q0 -33 -7 -39q-4 -5 -34 -13q-316 -80 -708 -153q-63 -12 -84 -29q-14 -10 -23 -10q-11 0 -20 20q-20 52 -35 126q97 7 219 26q57 8 84 14v745l-4 262q0 18 18 18l291 -4h463l279 4q12 0 12 -12l-4 -191v-215l4 -191q0 -12 -12 -12l-279 4h-211
q93 -141 228 -235q185 118 286 217q42 41 64 79q53 -32 105 -73q16 -13 16 -27q0 -13 -25 -20t-67 -39q-115 -91 -281 -199q199 -106 569 -176q-28 -29 -55 -82q-16 -31 -28 -31q-7 0 -25 5q-376 86 -578 219q-195 129 -336 362h-309v-387q245 45 498 109zM600 793h817v154
h-817v-154zM600 695v-161h817v161h-817zM1089 1176h-164l-176 -5q-18 0 -18 19v70q0 18 18 18l176 -4h164l176 4q19 0 19 -18v-70q0 -19 -19 -19zM57 1008q503 220 840 614q39 46 61 100q55 -7 129 -26q27 -6 27 -21q0 -14 -14 -20q-10 -3 -15 -8q162 -198 406 -359
q236 -155 505 -246q-33 -31 -57 -81q-14 -30 -23 -30q-5 0 -26 9q-286 118 -530 300q-216 161 -347 335q-352 -420 -847 -660q-24 -10 -27 -10q-8 0 -23 29q-27 47 -59 74z" />
    <glyph glyph-name="u2967F" unicode="&#xe0100;" 
d="M1104 1210h-115l-141 -4q-19 0 -19 19v61q0 19 19 19l141 -5h115l141 5q18 0 18 -19v-61q0 -19 -18 -19zM397 1130q178 103 334 247q131 120 207 234q34 48 45 99q68 -14 125 -35q22 -10 22 -19q0 -11 -18 -20q-9 -4 -13 -8q85 -106 224 -218q122 -98 248 -167
q-24 -18 -52 -63q-15 -25 -24 -25q-5 0 -27 12q-271 174 -428 379q-206 -277 -526 -490q-25 -14 -27 -14q-7 0 -24 27q-27 35 -66 61zM758 55q1 -73 3 -141l1 -35v-10q0 -19 -19 -19h-86q-18 0 -18 19l4 268v662l-4 272q0 18 18 18l244 -4h291l205 4q12 0 12 -12l-4 -178
v-180l4 -178q0 -12 -12 -12l-205 4h-434v-136h461l215 4q18 0 18 -18v-72q0 -18 -18 -18l-215 4h-461v-142h477l221 4q19 0 19 -18v-72q0 -18 -19 -18l-221 4h-477zM758 858h532v133h-532v-133zM758 768v-141h532v141h-532z" />
    <glyph glyph-name="uni98E0" unicode="&#xe0100;" 
d="M1167 338l64 43q8 6 13 6q6 0 14 -8q145 -145 292 -368q6 -9 6 -15q0 -8 -10 -14l-63 -49q-7 -7 -12 -7q-6 0 -13 11q-76 120 -135 196q-314 -105 -684 -194q-74 -21 -88 -31q-17 -12 -27 -12q-17 0 -25 18q-21 54 -39 121q72 8 195 33v747l-4 260q0 18 18 18l242 -4h60
v94q0 69 -11 125q14 -1 68 -5l55 -5q23 -3 23 -16t-10 -33q-11 -24 -11 -64v-96h113l201 4q12 0 12 -12l-4 -193v-229l4 -192q0 -12 -12 -12l-201 4h-426v-369q205 42 481 129q-50 61 -86 95q-8 8 -8 13t8 11zM772 827h518v168h-518v-168zM772 735v-182h518v182h-518z
M399 1122q371 187 555 463q22 32 37 86q62 -15 116 -35q21 -8 21 -20q0 -14 -14 -21q-8 -4 -13 -8q172 -207 474 -370q-32 -19 -62 -64q-18 -27 -24 -27q-9 0 -27 12q-261 166 -422 367q-206 -275 -535 -461q-21 -12 -28 -12q-8 0 -25 29q-24 38 -53 61z" />
    <glyph glyph-name="uni9B3C" unicode="&#xe0100;" 
d="M1949 168q-17 -150 -84 -199q-91 -63 -422 -63q-274 0 -345 31q-80 31 -80 145v570h-199q-12 -313 -170 -494q-143 -162 -440 -265q-2 0 -20 -6q-8 -2 -13 -2q-12 0 -28 27q-33 53 -68 76q341 97 477 251q131 149 139 413h-30l-291 -4q-16 0 -16 16l4 209v356l-4 211
q0 16 16 16l291 -4h139q54 96 73 143q24 58 31 117q77 -11 133 -29q17 -5 17 -20q0 -14 -17 -25q-12 -9 -28 -41q-35 -74 -77 -145h435l290 4q17 0 17 -16l-4 -211v-356l4 -209q0 -16 -17 -16l-290 4h-231v-517q0 -82 39 -100q38 -16 263 -16q282 0 338 41q34 25 46 79
q10 42 11 125q37 -28 83 -45q30 -11 30 -34q0 -7 -2 -17zM1554 754v256h-491v-256h491zM948 754v256h-466v-256h466zM1554 1110v236h-491v-236h491zM948 1110v236h-466v-236h466zM1802 231q3 -7 3 -10q0 -7 -19 -20l-37 -23q-14 -10 -20 -10t-11 12q-20 45 -27 56
q-189 -45 -360 -70q-56 -8 -68 -17q-16 -12 -24 -12q-14 0 -21 27q-10 35 -22 92q12 -1 27 -1q22 0 63 3q50 106 92 223q20 61 27 115q58 -9 104 -25q21 -5 21 -22q0 -10 -19 -25q-8 -8 -29 -53q-38 -96 -92 -201q114 15 256 43q-34 53 -69 95q-6 6 -6 10q0 5 20 16l35 19
q10 5 15 5q6 0 16 -12q79 -91 145 -215z" />
    <glyph glyph-name="uni9EA6" unicode="&#xe0100;" 
d="M1960 4q-32 -38 -53 -86q-14 -36 -32 -36q-7 0 -24 2q-509 77 -817 266q-319 -188 -794 -281q-20 -3 -27 -3q-18 0 -33 36q-18 39 -49 74q488 74 799 243q-158 114 -281 273q-170 -143 -401 -254q-27 -10 -33 -10q-12 0 -29 24q-28 40 -59 61q465 191 676 513h-373
l-270 -4q-15 0 -15 16v80q0 16 15 16l270 -4h516v185h-246l-284 -4q-17 0 -17 16v78q0 16 17 16l284 -4h246v176h-366l-287 -4q-16 0 -16 16v80q0 16 16 16l287 -4h366q0 145 -14 205q77 -3 135 -13q27 -3 27 -16q0 -10 -12 -39q-13 -24 -13 -137h391l287 4q16 0 16 -16v-80
q0 -16 -16 -16l-287 4h-391v-176h285l284 4q17 0 17 -16v-78q0 -16 -17 -16l-284 4h-285v-185h551l270 4q17 0 17 -16v-80q0 -16 -17 -16l-270 4h-682q-54 -89 -129 -177h559q37 0 49 6q15 6 23 6q14 0 53 -39q35 -34 35 -51q0 -15 -18 -24q-17 -8 -60 -51
q-132 -156 -305 -275q298 -159 815 -217zM1335 547h-594q143 -164 297 -262q165 108 297 262z" />
    <glyph glyph-name="uni9EC4" unicode="&#xe0100;" 
d="M1937 1063q0 -16 -16 -16l-262 4h-589v-166h290l291 4q16 0 16 -16l-4 -193v-272l4 -191q0 -16 -16 -16l-291 4h-674l-289 -4q-16 0 -16 16l4 191v272l-4 193q0 16 16 16l289 -4h267v166h-560l-262 -4q-16 0 -16 16v78q0 16 16 16l262 -4h279v195h-115l-285 -4
q-18 0 -18 18v78q0 16 18 16l285 -4h115v21q0 168 -14 223q80 -4 131 -8q25 -4 25 -19q0 -8 -13 -33q-10 -23 -10 -163v-21h448v21q0 166 -14 223q81 -4 133 -8q22 -4 22 -19q0 -7 -5 -18q-6 -14 -7 -17q-10 -27 -10 -161v-21h145l287 4q16 0 16 -16v-78q0 -18 -16 -18
l-287 4h-145v-195h301l262 4q16 0 16 -16v-78zM1544 301v205h-474v-205h474zM953 301v205h-449v-205h449zM1544 598v191h-474v-191h474zM1239 1153v195h-448v-195h448zM953 598v191h-449v-191h449zM817 90q0 -15 -25 -18q-13 -3 -61 -29q-213 -124 -471 -182q-21 -6 -30 -6
q-13 0 -29 33q-22 40 -53 71q295 50 469 150q52 30 82 59q62 -28 98 -51q20 -12 20 -27zM1891 -43q-35 -31 -56 -69q-16 -31 -30 -31q-4 0 -29 4q-288 61 -531 225q-8 6 -8 11q0 7 21 22l53 35q16 12 22 12q4 0 11 -4q223 -152 547 -205z" />
    <glyph glyph-name="uni6589" unicode="&#xe0100;" 
d="M1952 905q-25 -26 -45 -81q-14 -38 -30 -38q-6 0 -26 3q-179 23 -315 51v-713l4 -254q0 -17 -16 -17h-99q-16 0 -16 17l4 254v147h-834q-7 -30 -22 -68q-85 -200 -268 -342q-22 -18 -31 -18q-10 0 -31 20q-39 40 -84 56q217 145 301 340q66 158 70 572q-155 -37 -316 -61
q-19 -3 -25 -3q-17 0 -32 36q-22 50 -47 75q456 44 803 194q-188 115 -332 293h-127l-272 -4q-17 0 -17 16v85q0 16 17 16l272 -4h516v25q0 141 -16 206q85 -3 137 -10q25 -3 25 -16q0 -6 -13 -39q-10 -23 -10 -141v-25h531l272 4q16 0 16 -16v-85q0 -16 -16 -16l-272 4
h-138q-119 -166 -327 -293q287 -119 809 -170zM1413 705v164q-225 56 -395 139q-167 -80 -379 -141q0 -56 -4 -162h778zM1413 380v221h-782q-11 -134 -27 -221h809zM1317 1368h-607q134 -140 310 -235q193 104 297 235z" />
    <glyph glyph-name="uni6B6F" unicode="&#xe0100;" 
d="M1810 965q0 -10 -13 -39q-10 -26 -10 -150v-581l4 -326q0 -15 -16 -15h-93q-16 0 -16 15v102h-1287v-94q0 -19 -16 -19h-93q-16 0 -16 19l4 318v587q0 153 -14 218q74 -3 133 -13q22 -3 22 -16q0 -10 -12 -39q-8 -25 -8 -150v-702h1287v696q0 152 -12 217q75 -3 133 -12
q23 -3 23 -16zM1908 1127q0 -16 -17 -16l-270 4h-1188l-270 -4q-16 0 -16 16v82q0 16 16 16l270 -4h72v145q0 162 -16 223q76 -3 135 -12q26 -4 26 -19q0 -17 -12 -39t-12 -139v-159h346v266q0 163 -14 223q73 -3 134 -12q25 -4 25 -17q0 -17 -12 -39q-10 -20 -10 -135h346
l250 4q14 0 14 -16v-78q0 -16 -14 -16l-250 4h-346v-184h526l270 4q17 0 17 -16v-82zM1615 291q-29 -23 -53 -61q-17 -29 -26 -29q-3 0 -31 12q-273 128 -443 334q2 -115 7 -270q4 -118 4 -126q0 -16 -17 -16h-84q-16 0 -16 16q0 2 5 154q4 133 5 238q-152 -208 -418 -345
q-21 -12 -30 -12q-11 0 -29 25q-25 35 -51 51q300 135 461 334h-125l-271 -4q-16 0 -16 16v68q0 16 16 16l271 -4h188v149q0 115 -14 209q48 -2 117 -12q24 -4 24 -17q0 -9 -5 -23q-6 -17 -7 -21q-8 -31 -8 -136v-149h211l272 4q14 0 14 -16v-68q0 -16 -14 -16l-272 4h-158
q198 -201 493 -305zM1466 952q0 -9 -16 -22q-16 -12 -29 -33q-53 -74 -105 -133q-22 -23 -28 -23t-31 14q-15 9 -47 21q75 90 119 164q21 39 26 70l92 -37q19 -9 19 -21zM811 811q3 -7 3 -10q0 -8 -20 -19l-41 -22q-17 -9 -23 -9q-7 0 -14 13q-45 95 -116 180q-6 7 -6 11
q0 7 20 18l43 20q13 8 18 8t15 -12q63 -72 121 -178z" />
    <glyph glyph-name="uni7ADC" unicode="&#xe0100;" 
d="M1901 199q-11 -105 -35 -155q-19 -41 -57 -70q-92 -68 -390 -68q-301 0 -377 20q-104 30 -104 170v170h-449v-108q0 -17 -17 -17h-90q-16 0 -16 17l4 200v338l-4 205q0 16 16 16l308 -4h657l300 4q16 0 16 -16l-4 -193v-235l4 -193q0 -18 -16 -18l-300 4h-288v-131
q0 -83 49 -98q71 -18 315 -18q217 0 298 45q38 25 51 82q11 46 12 147q30 -24 86 -45q31 -12 31 -32v-17zM1538 364v183h-479v-183h479zM1538 643v172h-479v-172h479zM938 364v183h-449v-183h449zM938 643v172h-449v-172h449zM1902 1057q0 -16 -16 -16l-270 4h-1186l-271 -4
q-16 0 -16 16v80q0 16 16 16l271 -4h248q-24 96 -74 186q-4 8 -4 12q0 7 24 15l60 16q12 4 18 4q9 0 16 -15q58 -102 87 -218h401q38 73 65 150q13 38 19 84q67 -16 116 -33q21 -8 21 -21q0 -14 -14 -24q-12 -10 -31 -47q-27 -57 -57 -109h291l270 4q16 0 16 -16v-80z
M1757 1407q0 -16 -15 -16l-288 4h-860l-287 -4q-17 0 -17 16v78q0 16 17 16l287 -4h350v41q0 95 -15 164q66 -3 138 -10q24 -4 24 -17q0 -10 -12 -39q-10 -23 -10 -98v-41h385l288 4q15 0 15 -16v-78z" />
    <glyph glyph-name="uni4E80" unicode="&#xe0100;" 
d="M1970 177q-11 -185 -106 -240q-106 -62 -408 -62t-403 25q-63 18 -87 59q-28 46 -28 140v53h-534v-84q0 -17 -17 -17h-84q-16 0 -16 17l4 178v248l-4 182q0 16 16 16l308 -4h327v123h-233l-287 -4q-16 0 -16 18l4 152v164l-2 113q-79 -59 -189 -124q-18 -12 -26 -12
q-11 0 -25 29q-20 35 -51 53q346 176 528 430q44 61 58 105q62 -15 108 -33q21 -8 21 -27q0 -12 -21 -22q-16 -8 -47 -49q-5 -8 -14 -19q-10 -11 -13 -14h406q25 0 41 6q12 6 20 6q16 0 51 -33q39 -33 39 -45q0 -15 -25 -30q-23 -16 -44 -43q-58 -72 -107 -121h213l285 4
q16 0 16 -16l-4 -158v-164l4 -152q0 -18 -16 -18l-285 4h-276v-123h356l308 4q16 0 16 -16l-4 -170v-170l4 -172q0 -16 -16 -16l-308 4h-356v-35q0 -64 19 -91q18 -24 61 -33q71 -16 313 -16q260 0 334 45q48 28 64 88q12 44 18 157q34 -26 82 -41q30 -12 30 -28
q0 -6 -2 -21zM1614 236v147h-563v-147h563zM1118 1481h-462q-89 -99 -177 -168q46 -2 226 -2h276q81 87 137 170zM1614 463v141h-563v-141h563zM938 236v147h-534v-147h534zM938 463v141h-534v-141h534zM1514 893v133h-463v-133h463zM1514 1102v127h-463v-127h463zM938 893
v133h-424v-133h424zM938 1102v127h-424v-127h424z" />
    <glyph glyph-name="uni4E00" unicode="&#xe0100;" 
d="M1900 741q0 -16 -16 -16l-271 4h-1181l-271 -4q-16 0 -16 16v107q0 16 16 16l271 -4h1181l271 4q16 0 16 -16v-107z" />
    <glyph glyph-name="uni4E28" unicode="&#xe0100;" 
d="M1114 1640q0 -11 -11 -38q-12 -37 -12 -256v-1033l6 -413q0 -17 -16 -17h-113q-16 0 -16 17l4 411v1020q0 240 -18 340q78 -3 153 -14q23 -4 23 -17z" />
    <glyph glyph-name="uni4E36" unicode="&#xe0100;" 
d="M1401 506q7 -9 7 -14q0 -8 -19 -23l-66 -57q-17 -15 -24 -15q-6 0 -15 12q-251 365 -618 670q-9 8 -9 11q0 5 13 16l63 55q13 12 19 12q5 0 16 -8q359 -282 633 -659z" />
    <glyph glyph-name="uni4E3F" unicode="&#xe0100;" 
d="M1501 1569q0 -5 -20 -41q-22 -36 -39 -111q-139 -590 -383 -911q-263 -338 -629 -512q-24 -10 -28 -10q-12 0 -29 29q-31 47 -84 75q399 168 641 481q236 300 358 805q34 136 34 217q0 16 -1 33q65 -5 145 -27q35 -8 35 -28z" />
    <glyph glyph-name="uni4E59" unicode="&#xe0100;" 
d="M1862 412q-18 -144 -47 -213q-30 -73 -88 -115q-84 -59 -258 -80q-134 -16 -377 -16q-457 0 -619 47q-182 53 -182 211t246 420q311 330 837 714h-737l-293 -4q-16 0 -16 16v97q0 16 16 16l293 -4h803q33 0 51 6q1 0 15 5q9 3 14 3q27 0 69 -53q43 -53 43 -70
q0 -28 -45 -37q-43 -10 -129 -69q-537 -391 -801 -678q-133 -143 -183 -222q-44 -69 -44 -119q0 -42 36 -76q37 -34 101 -47q146 -31 531 -31q434 0 532 76q55 41 79 121q22 72 26 200q38 -25 90 -43q38 -14 38 -35q0 -5 -1 -20z" />
    <glyph glyph-name="uni4E85" unicode="&#xe0100;" 
d="M1150 1585q0 -10 -13 -39q-12 -27 -12 -176v-901l4 -309q0 -120 -61 -164q-65 -40 -250 -40q-45 0 -94 1q-31 2 -38 8q-6 6 -11 29q-16 68 -43 106q117 -14 241 -14q74 0 97 21q22 20 22 77v1184q0 169 -14 248q87 -4 147 -12q25 -4 25 -19z" />
    <glyph glyph-name="uni4E8C" unicode="&#xe0100;" 
d="M1697 1280q0 -16 -16 -16l-291 4h-745l-289 -4q-16 0 -16 16v103q0 16 16 16l289 -4h745l291 4q16 0 16 -16v-103zM1902 147q0 -16 -16 -16l-268 4h-1186l-271 -4q-16 0 -16 16v105q0 16 16 16l271 -4h1186l268 4q16 0 16 -16v-105z" />
    <glyph glyph-name="uni4EA0" unicode="&#xe0100;" 
d="M1901 696q0 -16 -18 -16l-271 4h-1175l-271 -4q-16 0 -16 16v101q0 16 16 16l271 -4h504v182q0 183 -15 250q75 -3 145 -12q27 -4 27 -21q0 -12 -12 -41q-12 -31 -12 -172v-186h538l271 4q18 0 18 -16v-101z" />
    <glyph glyph-name="uni4EBA" unicode="&#xe0100;" 
d="M1925 14q-44 -34 -71 -83q-18 -29 -27 -29q-11 0 -31 14q-628 401 -762 1128q-126 -756 -780 -1126q-25 -14 -31 -14q-7 0 -28 31q-32 43 -76 73q430 207 647 622q182 347 176 767q-3 164 -14 243q82 -3 153 -16q29 -7 29 -25q0 -12 -12 -40q-18 -41 -18 -115
q0 -72 -3 -107q71 -473 282 -798q208 -322 566 -525z" />
    <glyph glyph-name="uni513F" unicode="&#xe0100;" 
d="M797 1561q0 -2 -13 -39q-12 -40 -12 -240v-192q0 -461 -82 -693q-101 -309 -412 -494q-28 -14 -32 -14q-11 0 -31 27q-39 49 -78 70q329 158 432 467q74 212 74 620v213q0 219 -14 307q82 -3 139 -12q29 -3 29 -20zM1921 326q-13 -222 -90 -299q-52 -51 -120 -70
q-67 -18 -188 -18q-151 0 -206 14q-47 12 -76 45q-29 32 -38 83q-7 43 -7 138v1104q0 179 -12 272q61 -2 141 -14q25 -4 25 -18q0 -10 -11 -37q-14 -43 -14 -205v-1077q0 -84 3 -107q4 -28 17 -44q16 -21 59 -26q35 -5 126 -5q151 0 202 57q55 60 64 301q30 -28 90 -45
q25 -7 30 -13q6 -6 6 -21q0 -6 -1 -15z" />
    <glyph glyph-name="uni5165" unicode="&#xe0100;" 
d="M1942 14q-41 -30 -74 -82q-17 -29 -27 -29q-8 0 -28 14q-337 235 -526 546q-168 277 -230 634q-59 -397 -293 -722q-201 -278 -498 -458q-28 -14 -33 -14q-8 0 -28 29q-30 42 -78 70q419 210 643 624q193 353 213 803h-291l-192 -4q-17 0 -17 16v97q0 16 17 16l192 -4
h207l193 4q18 0 18 -18q0 -114 18 -250q109 -841 814 -1272z" />
    <glyph glyph-name="uni516B" unicode="&#xe0100;" 
d="M1966 59q-51 -23 -100 -70q-19 -18 -27 -18t-29 21q-276 287 -418 652q-129 332 -157 753h-383l-207 -4q-16 0 -16 18v97q0 16 16 16l207 -4h276l210 4q18 0 18 -18q-1 -17 -1 -36q0 -48 5 -102q43 -481 222 -818q135 -256 384 -491zM795 1165q0 -16 -10 -26
q-16 -16 -29 -92q-67 -375 -194 -623q-122 -239 -330 -426q-21 -21 -31 -21q-7 0 -29 18q-44 39 -88 56q234 194 360 435q112 214 162 505q22 103 25 223q79 -8 137 -26q27 -9 27 -23z" />
    <glyph glyph-name="uni5182" unicode="&#xe0100;" 
d="M1815 84q0 -89 -53 -133q-56 -43 -273 -43q-33 0 -40 7q-5 5 -13 36q-11 48 -39 96q85 -10 185 -10q59 0 80 20q18 16 18 56v1335h-1307v-1172l4 -368q0 -17 -16 -17h-107q-16 0 -16 17l4 397v850l-4 401q0 17 16 17l287 -4h973l285 4q16 0 16 -17l-4 -403v-741z" />
    <glyph glyph-name="uni5196" unicode="&#xe0100;" 
d="M1851 587q0 -16 -16 -16h-105q-18 0 -18 16v324h-1372v-324q0 -16 -16 -16h-107q-16 0 -16 16l4 230v84l-4 121q0 16 16 16l287 -4h1046l285 4q16 0 16 -16l-4 -109v-96z" />
    <glyph glyph-name="uni51AB" unicode="&#xe0100;" 
d="M1397 725q14 -23 14 -33t-18 -35q-231 -316 -506 -598q-55 -52 -68 -74q-12 -18 -24 -18t-31 23q-36 39 -78 112q77 46 145 111q286 266 525 616q14 -58 41 -104zM1259 1264q6 -7 6 -11q0 -6 -18 -26l-47 -56q-18 -18 -25 -18q-8 0 -18 10q-193 200 -405 334q-9 6 -9 12
q0 5 11 17l51 55q13 14 20 14q5 0 15 -6q216 -135 419 -325z" />
    <glyph glyph-name="uni51E0" unicode="&#xe0100;" 
d="M1951 266q-18 -199 -63 -258q-41 -51 -101 -68q-54 -16 -158 -16q-132 0 -191 13q-52 12 -81 40q-31 30 -40 78q-9 44 -9 141v1235h-616q1 -469 -20 -688q-19 -190 -69 -338q-96 -305 -364 -506q-25 -18 -33 -18q-9 0 -26 27q-29 45 -76 74q276 163 374 456
q82 238 82 751l-4 349q0 16 16 16l246 -4h359l248 4q16 0 16 -16l-4 -349v-968q0 -120 20 -145q25 -35 162 -35q125 0 162 43q43 51 53 280q37 -30 85 -47q34 -12 34 -31q0 -7 -2 -20z" />
    <glyph glyph-name="uni51F5" unicode="&#xe0100;" 
d="M1847 1536q0 -2 -8 -35q-12 -41 -12 -182v-870l4 -527q0 -16 -16 -16h-105q-14 0 -14 16v123h-1336v-119q0 -16 -16 -16h-103q-16 0 -16 16l4 514v873q0 172 -14 251q93 -3 145 -12q20 -4 20 -18q0 -8 -10 -35q-10 -34 -10 -182v-1153h1336v1151q0 173 -14 251
q92 -3 145 -12q20 -3 20 -18z" />
    <glyph glyph-name="uni5200" unicode="&#xe0100;" 
d="M1786 1477q-4 -115 -4 -177q0 -699 -62 -1071q-28 -158 -99 -219q-67 -57 -201 -57q-112 0 -226 12q-30 3 -36 11q-5 6 -11 36q-14 64 -35 96q183 -26 303 -26q147 0 179 184q55 363 55 1106h-649q-2 -265 -27 -431q-28 -188 -94 -345q-164 -397 -621 -648
q-25 -14 -30 -14q-8 0 -29 27q-34 40 -82 68q482 234 637 614q69 167 92 369q15 133 16 360h-333l-285 -4q-16 0 -16 16v95q0 16 16 16l285 -4h952l287 4q18 0 18 -18z" />
    <glyph glyph-name="uni529B" unicode="&#xe0100;" 
d="M1761 1223q-4 -60 -4 -179q-8 -580 -70 -887q-31 -145 -96 -196q-57 -46 -172 -46h-46q-103 0 -196 15q-32 3 -37 10q-5 6 -10 37q-12 57 -35 96q164 -31 318 -31q64 0 98 35q34 37 49 121q66 349 66 918h-606q-21 -315 -109 -537q-91 -231 -262 -399
q-144 -141 -369 -263q-21 -12 -30 -12q-10 0 -31 25q-37 45 -82 70q503 223 655 630q74 197 95 486h-351l-286 -4q-17 0 -17 16v97q0 16 17 16l286 -4h357q2 74 2 225q0 143 -15 244q93 -4 148 -14q31 -6 31 -21q0 -14 -17 -47q-12 -27 -12 -164q0 -147 -4 -223h428l289 4
q18 0 18 -18z" />
    <glyph glyph-name="uni52F9" unicode="&#xe0100;" 
d="M1772 1325q0 -3 -6 -189q-20 -535 -94 -940q-54 -307 -312 -307q-111 0 -248 10q-29 2 -35 10q-6 7 -12 37q-10 56 -28 97q155 -27 301 -27q97 0 146 66q39 53 58 161q75 412 89 977h-1051q-125 -241 -293 -430q-18 -20 -27 -20q-8 0 -28 20q-26 28 -76 53
q273 276 438 717q27 75 37 150q75 -18 135 -37q23 -7 23 -23q0 -10 -18 -28q-21 -18 -41 -70q-48 -122 -91 -213h830l285 2q18 0 18 -16z" />
    <glyph glyph-name="uni5315" unicode="&#xe0100;" 
d="M1802 324q-35 -245 -131 -316q-112 -84 -615 -84q-260 0 -365 10q-102 10 -155 37q-71 35 -101 97t-30 168v1124q0 154 -14 237q82 -3 145 -12q25 -5 25 -20q0 -10 -10 -37q-13 -31 -13 -164v-567q559 167 879 393q72 52 106 94q42 -31 99 -84q18 -18 18 -35
q0 -18 -39 -28q-28 -9 -117 -68q-373 -233 -946 -403v-387q0 -95 21 -137q19 -38 69 -62q73 -33 430 -33q447 0 529 76q76 70 88 307q35 -25 96 -53q32 -15 32 -31q0 -4 -1 -22z" />
    <glyph glyph-name="uni531A" unicode="&#xe0100;" 
d="M1843 16q0 -16 -16 -16l-289 4h-1143v-121q0 -16 -16 -16h-103q-16 0 -16 16l4 393v873l-4 391q0 18 16 18l289 -4h942l285 4q16 0 16 -18v-97q0 -16 -16 -16l-285 4h-1112v-1304h1143l289 4q16 0 16 -16v-99z" />
    <glyph glyph-name="uni5338" unicode="&#xe0100;" 
d="M1910 1405q0 -16 -18 -16l-269 4h-1124v-1077q0 -99 22 -138q22 -42 82 -55q114 -27 500 -27q377 0 693 38h7q11 0 14 -14q2 -9 5 -52q1 -22 1 -34q0 -22 -5 -27q-3 -4 -16 -5q-341 -33 -686 -33q-483 0 -609 41q-139 37 -139 254v1129q-92 -1 -163 -3q-8 0 -37 -1h-11
q-16 0 -16 16v99q0 16 16 16l268 -4h1198l269 4q18 0 18 -16v-99z" />
    <glyph glyph-name="uni5341" unicode="&#xe0100;" 
d="M1903 823q0 -16 -16 -16l-271 4h-542v-573l4 -353q0 -16 -17 -16h-108q-18 0 -18 16l4 351v575h-510l-271 -4q-16 0 -16 16v103q0 16 16 16l271 -4h510v463q0 187 -15 280q44 -1 150 -12q25 -4 25 -18q0 -10 -11 -37q-14 -43 -14 -209v-467h542l271 4q16 0 16 -16v-103z
" />
    <glyph glyph-name="uni535C" unicode="&#xe0100;" 
d="M1690 578l-43 -72q-16 -27 -24 -27q-5 0 -13 6q-346 253 -715 430v-690l4 -362q0 -17 -16 -17h-109q-16 0 -16 17l4 360v1186q0 187 -14 281q81 -4 145 -11q22 -3 22 -18t-8 -37q-12 -34 -12 -211v-350q462 -221 793 -447q11 -7 11 -16q0 -8 -9 -22z" />
    <glyph glyph-name="uni5369" unicode="&#xe0100;" 
d="M1462 444q0 -120 -41 -174q-34 -41 -92 -56q-57 -14 -171 -14q-27 0 -52 1q-32 0 -38 6q-5 6 -11 37q-12 54 -39 96q119 -10 198 -10q67 0 90 29q21 27 21 96v987h-608v-1200l4 -373q0 -16 -18 -16h-105q-16 0 -16 16l4 402v874l-4 405q0 17 16 17l246 -4h354l246 4
q16 0 16 -17l-4 -315v-516z" />
    <glyph glyph-name="uni5382" unicode="&#xe0100;" 
d="M1872 1445q0 -16 -16 -16l-285 4h-1112v-299q0 -393 -55 -686q-55 -282 -189 -522q-15 -25 -22 -25q-8 0 -29 20q-40 41 -88 60q140 203 203 514q51 263 51 641l-4 404q0 16 18 16l287 -4h940l285 4q16 0 16 -16v-95z" />
    <glyph glyph-name="uni53B6" unicode="&#xe0100;" 
d="M1837 33q3 -7 3 -11q0 -8 -21 -20l-70 -35q-17 -9 -25 -9t-16 15q-58 132 -118 242q-584 -99 -1250 -166q-79 -11 -94 -21q-21 -12 -37 -12q-15 0 -22 23q-20 66 -33 143q34 -2 80 -2q67 0 133 4l70 6q242 565 407 1143q40 158 49 246q97 -24 141 -41q29 -12 29 -29
q0 -16 -14 -31q-25 -27 -51 -116q-206 -668 -420 -1159q493 49 950 123q-149 262 -285 450q-6 9 -6 13q0 9 25 20l61 28q15 8 21 8t12 -10q276 -385 481 -802z" />
    <glyph glyph-name="uni53C8" unicode="&#xe0100;" 
d="M1949 2q-41 -38 -67 -88q-17 -31 -29 -31q-11 0 -31 8q-487 196 -784 490q-330 -310 -817 -486q-29 -8 -31 -8q-12 0 -26 31q-25 50 -68 86q502 148 856 467q-305 347 -457 911l-262 -4q-16 0 -16 16v93q0 16 16 16l289 -4h1001q35 0 56 10q12 6 20 6q23 0 68 -45
q37 -40 37 -56q0 -17 -16 -28q-30 -16 -60 -101q-180 -496 -490 -808l-4 -4q290 -281 815 -471zM1521 1382h-897q142 -504 424 -819q307 321 473 819z" />
    <glyph glyph-name="uni53E3" unicode="&#xe0100;" 
d="M1759 -33q0 -16 -14 -16h-103q-16 0 -16 16v174h-1204v-176q0 -16 -18 -16h-101q-14 0 -14 16l2 651v379l-2 486q0 16 14 16l293 -4h856l293 4q14 0 14 -16l-2 -443v-422zM1626 262v1110h-1204v-1110h1204z" />
    <glyph glyph-name="uni56D7" unicode="&#xe0100;" 
d="M1829 -129q0 -16 -16 -16h-99q-16 0 -16 16v115h-1350v-115q0 -16 -16 -16h-99q-16 0 -16 16l4 760v401l-4 545q0 16 16 16l285 -4h1010l285 4q16 0 16 -16l-4 -486v-460zM1698 99v1375h-1350v-1375h1350z" />
    <glyph glyph-name="uni571F" unicode="&#xe0100;" 
d="M1925 -19q0 -16 -16 -16l-265 4h-1236l-265 -4q-16 0 -16 16v99q0 16 16 16l265 -4h530v776h-342l-289 -4q-16 0 -16 16v97q0 16 16 16l289 -4h342v395q0 198 -16 285q73 -3 147 -10q25 -4 25 -19q0 -11 -10 -39q-13 -30 -13 -213v-399h389l287 4q16 0 16 -16v-97
q0 -16 -16 -16l-287 4h-389v-776h573l265 4q16 0 16 -16v-99z" />
    <glyph glyph-name="uni58EB" unicode="&#xe0100;" 
d="M1907 880q0 -16 -16 -16l-273 4h-540v-784h415l285 4q16 0 16 -16v-93q0 -16 -16 -16l-285 4h-937l-285 -4q-17 0 -17 16v93q0 16 17 16l285 -4h389v784h-510l-271 -4q-16 0 -16 16v95q0 16 16 16l271 -4h510v410q0 179 -15 258q93 -4 148 -13q23 -3 23 -18
q0 -11 -11 -35q-12 -29 -12 -184v-418h540l273 4q16 0 16 -16v-95z" />
    <glyph glyph-name="uni5902" unicode="&#xe0100;" 
d="M1950 14q-41 -34 -72 -86q-19 -33 -31 -33q-7 0 -30 9q-487 202 -766 497q-287 -283 -795 -514q-24 -10 -31 -10q-12 0 -30 31q-25 38 -70 74q524 207 838 518q-182 225 -310 534q-125 -169 -327 -340q-22 -18 -29 -18q-8 0 -27 25q-29 34 -71 57q397 290 571 737
q40 94 51 178q75 -15 127 -34q25 -9 25 -27q0 -14 -20 -35q-20 -19 -43 -80q-51 -122 -85 -188h570q30 0 41 6q13 8 30 8q20 0 60 -37q45 -42 45 -59q0 -16 -20 -33q-19 -17 -35 -54q-158 -396 -377 -644q298 -301 811 -482zM1389 1194h-627l-29 -45q125 -324 318 -557
q226 261 338 602z" />
    <glyph glyph-name="uni590A" unicode="&#xe0100;" 
d="M1950 8q-33 -22 -72 -88q-18 -29 -30 -29q-8 0 -29 9q-452 186 -779 485q-285 -276 -780 -502q-24 -10 -31 -10q-10 0 -28 31q-23 37 -72 76q505 198 817 497q-173 176 -325 404q-122 -134 -269 -242q-24 -18 -30 -18q-11 0 -29 25q-36 42 -76 61q188 120 334 282
q-82 135 -154 279q-3 9 -3 13q0 10 22 26l51 35q15 12 20 12q6 0 15 -14q75 -153 133 -252q136 175 231 399q47 108 56 180q62 -13 130 -38q27 -9 27 -27q0 -14 -27 -33q-16 -13 -45 -80q-43 -104 -87 -184h479q27 0 43 6q19 8 28 8q20 0 60 -37q45 -42 45 -59
q0 -16 -20 -33q-23 -19 -35 -53q-158 -399 -392 -660q341 -297 822 -469zM1393 1190h-539q-73 -120 -150 -213q146 -228 330 -412q244 267 359 625z" />
    <glyph glyph-name="uni5915" unicode="&#xe0100;" 
d="M1767 1278q0 -15 -18 -27q-21 -16 -52 -96q-90 -230 -191 -395q-96 -158 -232 -312q-300 -329 -807 -577q-19 -8 -29 -8q-13 0 -33 29q-32 44 -79 75q506 209 823 543q-173 167 -403 311q-12 7 -12 13q0 8 16 22l49 49q12 14 18 14q5 0 14 -5q206 -120 406 -302
q216 260 348 631h-698q-217 -318 -539 -547q-23 -16 -31 -16t-26 25q-32 39 -76 69q447 277 682 748q39 77 49 147q103 -20 141 -35q25 -10 25 -28q0 -15 -20 -27q-18 -11 -50 -74q-69 -128 -79 -145h620q37 0 53 8q17 8 29 8q18 0 63 -45q39 -36 39 -53z" />
    <glyph glyph-name="uni5927" unicode="&#xe0100;" 
d="M1937 6q-43 -36 -74 -86q-17 -31 -28 -31q-10 0 -31 12q-289 152 -502 431q-191 249 -283 552q-41 -197 -112 -346q-112 -230 -288 -392q-151 -139 -374 -251q-27 -10 -33 -10q-10 0 -30 29q-30 37 -76 69q486 202 682 607q84 173 119 401h-469l-273 -4q-16 0 -16 18v95
q0 16 16 16l273 -4h483q13 129 16 328q1 43 1 69q0 96 -11 162q90 -4 145 -12q29 -6 29 -23q0 -10 -12 -39q-14 -27 -16 -153q-4 -182 -21 -332h551l272 4q17 0 17 -16v-95q0 -18 -17 -18l-272 4h-512q110 -358 345 -626q219 -248 501 -359z" />
    <glyph glyph-name="uni5973" unicode="&#xe0100;" 
d="M1900 1075q0 -16 -16 -16l-270 4h-86q-83 -411 -297 -676q248 -136 579 -358q7 -6 7 -11q0 -8 -11 -22l-47 -57q-18 -23 -25 -23q-5 0 -14 6q-328 233 -575 371q-312 -305 -865 -393q-19 -2 -24 -2q-20 0 -35 37q-20 47 -59 84q555 62 860 342q-233 119 -451 202
q-39 -63 -76 -114q-9 -12 -16 -12q-5 0 -23 8l-63 26q-25 12 -25 23q0 6 7 14q78 103 133 197q91 160 176 358h-260l-271 -4q-16 0 -16 16v92q0 19 16 19l271 -4h309q60 154 109 311q18 60 26 160q70 -9 133 -25q27 -8 27 -24q0 -10 -16 -33q-21 -31 -37 -88
q-50 -158 -105 -301h744l270 4q16 0 16 -19v-92zM1390 1063h-567q-88 -211 -192 -397q236 -91 479 -215q202 237 280 612z" />
    <glyph glyph-name="uni5B50" unicode="&#xe0100;" 
d="M1918 763q0 -16 -16 -16l-271 4h-530v-336l4 -290q0 -79 -22 -123q-14 -29 -48 -57q-55 -52 -269 -52q-35 0 -87 1q-32 0 -38 5t-13 36q-16 62 -45 102q111 -12 272 -12q113 0 113 124v602h-535l-270 -4q-16 0 -16 16v99q0 16 16 16l270 -4h535q0 167 -16 260
q75 -9 104 -14q249 158 432 338h-833l-289 -4q-17 0 -17 16v95q0 16 17 16l289 -4h874q24 0 37 6q8 4 20 4q18 0 58 -37q55 -53 55 -74q0 -19 -27 -35q-49 -26 -71 -51q-202 -202 -500 -379v-137h530l271 4q16 0 16 -16v-99z" />
    <glyph glyph-name="uni5B80" unicode="&#xe0100;" 
d="M1847 532q0 -17 -18 -17h-105q-16 0 -16 17v307h-1372v-307q0 -17 -16 -17h-105q-16 0 -16 17l4 219v76l-4 119q0 16 16 16l285 -4h438v150q0 114 -16 180q74 0 149 -10q25 -4 25 -19q0 -8 -12 -37q-11 -23 -11 -114v-150h471l285 4q18 0 18 -16l-4 -105v-90z" />
    <glyph glyph-name="uni5BF8" unicode="&#xe0100;" 
d="M1904 1097q0 -16 -16 -16l-271 4h-180v-608l6 -374q0 -120 -59 -160q-48 -39 -344 -39q-31 0 -37 7q-6 5 -14 36q-21 67 -43 100q112 -11 210 -11q28 0 52 1q59 4 77 19q19 16 19 57v972h-872l-271 -4q-16 0 -16 16v103q0 16 16 16l271 -4h872v231q0 154 -14 248
q87 -3 147 -12q27 -3 27 -18q0 -13 -13 -41q-14 -29 -14 -175v-233h180l271 4q16 0 16 -16v-103zM983 457q8 -13 8 -18q0 -8 -17 -19l-69 -47q-19 -13 -25 -13q-5 0 -16 14q-154 251 -326 423q-7 7 -7 12q0 6 22 22l57 43q14 10 20 10q5 0 13 -7q199 -194 340 -420z" />
    <glyph glyph-name="uni5C0F" unicode="&#xe0100;" 
d="M1116 1579q0 -10 -12 -39q-13 -27 -13 -178v-899l4 -309q0 -126 -59 -168q-35 -23 -94 -31t-203 -8q-31 0 -37 7q-7 6 -12 36q-14 65 -41 104q82 -12 205 -12q63 0 83 21q21 20 21 77v1180q0 171 -14 250q92 -4 145 -13q27 -3 27 -18zM655 1090q0 -13 -12 -25
q-21 -21 -35 -68q-127 -393 -357 -671q-18 -25 -26 -25q-3 0 -29 18q-46 35 -92 48q243 259 362 628q26 93 29 162q76 -19 131 -43q29 -13 29 -24zM1929 401q-61 -30 -94 -63q-21 -21 -29 -21q-9 0 -25 23q-113 165 -221 382q-99 200 -156 372q-2 6 -2 9q0 5 31 17l64 27
q17 7 21 7q7 0 11 -13q125 -395 400 -740z" />
    <glyph glyph-name="uni5C38" unicode="&#xe0100;" 
d="M1774 891q0 -17 -16 -17h-97q-18 0 -18 17v104h-1192q-4 -270 -41 -514q-52 -322 -205 -567q-15 -25 -23 -25q-9 0 -26 20q-34 37 -80 62q98 132 149 283q38 111 62 268q39 250 39 637l-4 395q0 17 16 17l291 -4h836l292 4q17 0 17 -17l-4 -192v-285zM1643 1108v346
h-1192v-346h1192z" />
    <glyph glyph-name="uni5C6E" unicode="&#xe0101;" 
d="M1794 1364q0 -6 -8 -35q-12 -36 -12 -194v-451l4 -262q0 -16 -16 -16h-97q-16 0 -16 16v131h-586q-14 -106 -29 -162q-47 -195 -181 -322q-109 -104 -327 -211q-24 -10 -31 -10q-10 0 -32 29q-30 42 -78 68q253 101 371 213q108 103 149 256q19 76 27 139h-535v-135
q0 -17 -16 -17h-97q-16 0 -16 17l4 256v455q0 170 -14 254q78 -3 137 -13q22 -3 22 -18q0 -6 -8 -35q-12 -37 -12 -194v-449h547q6 95 10 471q0 332 -4 424q-5 79 -8 107q73 -4 143 -17q29 -3 29 -20q0 -5 -14 -43q-15 -32 -15 -283q0 -465 -12 -639h576v467q0 170 -14 254
q78 -3 136 -12q23 -4 23 -19z" />
    <glyph glyph-name="uni5C71" unicode="&#xe0100;" 
d="M1782 1098q0 -13 -11 -41q-12 -37 -12 -196v-598l4 -332q0 -17 -16 -17h-101q-16 0 -16 17v143h-1215v-152q0 -16 -16 -16h-101q-16 0 -16 16l4 328v603q0 177 -12 264q81 -4 141 -13q25 -4 25 -18q0 -9 -10 -37q-15 -39 -15 -192v-664h525v1176q0 174 -16 280
q69 -2 144 -10q23 -4 23 -18t-10 -41q-10 -31 -10 -207v-1180h559v672q0 180 -14 264q81 -3 139 -12q27 -4 27 -19z" />
    <glyph glyph-name="uni5DDB" unicode="&#xe0100;" 
d="M803 -20q3 -9 3 -13q0 -8 -23 -16l-78 -25q-18 -6 -24 -6q-7 0 -13 14q-151 441 -414 830q-16 26 -16 31t14 30q209 341 330 664q26 71 31 131q85 -20 131 -39q31 -11 31 -29q0 -12 -25 -36q-21 -22 -41 -64q-164 -378 -336 -657q251 -351 430 -815zM1860 -2q3 -6 3 -10
q0 -10 -26 -19l-71 -26q-16 -6 -23 -6q-9 0 -16 16q-168 420 -467 826q-14 20 -14 30t14 33q228 369 334 651q25 67 30 127q74 -16 129 -37q33 -12 33 -29q0 -12 -25 -36q-23 -24 -38 -64q-134 -328 -346 -645q282 -364 483 -811zM1334 -2q3 -7 3 -11q0 -8 -22 -16l-82 -26
q-13 -5 -18 -5q-9 0 -14 15q-157 423 -441 825q-16 23 -16 31q0 6 14 31q233 377 328 651q29 87 33 129q61 -13 126 -37q35 -14 35 -29q0 -12 -27 -38q-19 -17 -41 -64q-144 -335 -333 -645q280 -378 455 -811z" />
    <glyph glyph-name="uni5DE5" unicode="&#xe0100;" 
d="M1907 80q0 -16 -16 -16l-271 4h-1189l-271 -4q-16 0 -16 16v103q0 16 16 16l271 -4h508v1128h-371l-285 -4q-16 0 -16 16v101q0 16 16 16l285 -4h915l285 4q16 0 16 -16v-101q0 -16 -16 -16l-285 4h-409v-1128h546l271 4q16 0 16 -16v-103z" />
    <glyph glyph-name="uni5DF1" unicode="&#xe0100;" 
d="M1904 297q-20 -122 -52 -182q-31 -58 -85 -88q-126 -72 -662 -72q-580 0 -667 74q-42 32 -57 86q-13 46 -13 135v475l-4 209q0 16 16 16l299 -4h836v492h-889l-297 -2q-16 0 -16 14v98q0 17 16 17l297 -4h717l289 4q16 0 16 -17l-4 -215v-405l4 -216q0 -16 -16 -16h-101
q-16 0 -16 16v111h-1018v-541q0 -119 39 -153q54 -51 571 -51q490 0 578 59q84 58 100 281q36 -33 85 -56q38 -18 38 -38q0 -8 -4 -27z" />
    <glyph glyph-name="uni5DFE" unicode="&#xe0100;" 
d="M1780 395q0 -92 -47 -131q-54 -47 -273 -47q-32 0 -39 7t-14 36q-15 58 -37 90q68 -6 185 -6q52 0 73 22q19 20 19 66v711h-574v-911l4 -359q0 -16 -18 -16h-103q-16 0 -16 16l4 359v911h-528v-635l4 -289q0 -16 -16 -16h-105q-14 0 -14 16l4 291v494l-4 246q0 16 14 16
l291 -4h354v152q0 198 -16 284q83 -3 143 -12q25 -4 25 -19q0 -14 -11 -38q-12 -30 -12 -209v-158h402l291 4q14 0 14 -16l-4 -258v-420z" />
    <glyph glyph-name="uni5E72" unicode="&#xe0100;" 
d="M1919 798q0 -16 -17 -16l-299 4h-534v-563l4 -340q0 -17 -16 -17h-111q-16 0 -16 17l4 340v563h-486l-299 -4q-16 0 -16 16v99q0 18 16 18l299 -4h486v520h-381l-285 -4q-16 0 -16 16v101q0 16 16 16l285 -4h932l284 4q17 0 17 -16v-101q0 -16 -17 -16l-284 4h-416v-520
h534l299 4q17 0 17 -18v-99z" />
    <glyph glyph-name="uni5E7F" unicode="&#xe0100;" 
d="M1877 1314q0 -16 -17 -16l-286 4h-1112v-276q0 -356 -35 -584q-44 -284 -199 -536q-16 -23 -22 -23q-9 0 -29 20q-38 38 -80 58q158 214 207 530q31 194 31 551l-4 367q0 16 16 16l289 -4h383v117q0 108 -15 166q81 -4 134 -11q35 -3 35 -20q0 -6 -13 -35
q-12 -27 -12 -98v-119h426l286 4q17 0 17 -16v-95z" />
    <glyph glyph-name="uni5EF4" unicode="&#xe0100;" 
d="M1958 102q-27 -32 -39 -94q-7 -33 -15 -40t-36 -10q-268 -22 -674 -22q-480 0 -690 233l-13 12q-107 -136 -276 -264q-22 -18 -29 -18q-11 0 -28 27q-35 45 -66 67q189 124 319 291q-93 131 -169 360q-4 10 -4 13q0 7 18 14l59 20q13 6 19 6q9 0 14 -16q62 -190 131 -299
q134 215 176 506h-274l-49 -68q-8 -8 -16 -8q-12 0 -60 19q-50 20 -50 29q0 4 9 14q236 302 373 578h-220l-184 -4q-16 0 -16 16v88q0 17 16 17l184 -4h240q26 0 45 6q17 4 19 4q19 0 51 -37q33 -39 33 -53t-23 -33q-12 -9 -51 -82q-84 -165 -223 -371h204q15 0 39 6
q13 4 23 4q17 0 49 -35q39 -45 39 -57q0 -11 -18 -29q-13 -18 -25 -64q-70 -329 -211 -548l12 -13q198 -204 608 -204q379 0 779 43z" />
    <glyph glyph-name="uni5EFE" unicode="&#xe0100;" 
d="M1917 811q0 -16 -17 -16l-268 4h-219v-561l4 -344q0 -17 -16 -17h-105q-16 0 -16 17l4 342v563h-508q-13 -254 -51 -387q-61 -187 -156 -307q-86 -110 -239 -218q-23 -16 -31 -16q-9 0 -31 29q-35 41 -84 65q330 176 418 492q33 111 47 342h-238l-266 -4q-16 0 -16 16v99
q0 16 16 16l266 -4h242q4 104 4 319v105q0 223 -14 309q85 -3 141 -12q29 -3 29 -19q0 -7 -4 -18q-6 -16 -8 -22q-13 -41 -13 -240v-98q0 -164 -6 -324h502v459q0 187 -14 280q65 -2 141 -10q25 -3 25 -18q0 -10 -10 -37q-13 -34 -13 -211v-463h219l268 4q17 0 17 -16v-99z
" />
    <glyph glyph-name="uni5F0B" unicode="&#xe0100;" 
d="M1941 219q-48 -323 -235 -323q-145 0 -302 142q-144 131 -235 333q-135 294 -182 620l-524 -41q-245 -20 -273 -24q-5 -1 -7 -1q-7 0 -9 15l-10 100q-1 3 -1 6q0 9 17 9q4 0 78 5q90 5 196 13l516 41q-14 127 -20 303q-5 174 -23 264q90 -3 143 -8q27 -3 27 -22
q0 -15 -10 -35q-9 -32 -9 -101q0 -21 1 -40q3 -201 20 -351l482 39q184 14 274 26q3 1 6 1q8 0 11 -16l6 -97v-6q0 -10 -17 -10q-31 0 -276 -21l-469 -39q49 -317 170 -573q87 -189 218 -301q104 -90 187 -90q107 0 136 295q30 -26 81 -53q36 -17 36 -34q0 -7 -3 -26z
M1663 1376q7 -9 7 -14q0 -6 -11 -21l-48 -51q-13 -16 -20 -16q-6 0 -14 9q-105 123 -246 212q-10 5 -10 10q0 6 14 23l39 40q11 14 18 14q4 0 13 -5q140 -77 258 -201z" />
    <glyph glyph-name="uni5F13" unicode="&#xe0100;" 
d="M1778 668l-27 -214q-37 -291 -102 -428q-41 -87 -109 -121q-61 -30 -163 -30q-135 0 -261 21q-28 4 -35 14q-6 8 -12 39q-11 59 -32 94q198 -39 335 -39q72 0 103 17q33 19 55 69q69 163 101 473h-1199q-3 -13 -55 -161q-7 -17 -20 -17q-10 0 -56 8q-62 10 -62 22
q0 4 5 15q88 214 162 553q13 58 16 136q0 18 18 18l277 -4h807v319h-901l-289 -4q-14 0 -14 18v93q0 16 14 16l289 -4h711l305 4q16 0 16 -17l-4 -173v-184l4 -175q0 -16 -16 -16l-305 4h-791q-39 -191 -78 -332h1004l291 4q18 0 18 -18z" />
    <glyph glyph-name="uni5F50" unicode="&#xe0100;" 
d="M1642 -12h-1210l-271 -4q-18 0 -18 18v95q0 18 18 18l271 -4h993l35 628h-809l-283 -4q-18 0 -18 18v93q0 18 18 18l283 -4h817l31 549h-879l-289 -4q-18 0 -18 18v95q0 18 18 18l289 -4h709l293 4q18 0 18 -18q-8 -80 -16 -232l-66 -1175h84l270 4q19 0 19 -18v-95
q0 -18 -19 -18z" />
    <glyph glyph-name="uni5F61" unicode="&#xe0100;" 
d="M1510 1562q0 -13 -21 -20q-41 -15 -86 -49q-171 -125 -451 -241q-254 -106 -491 -159q-17 -4 -24 -4q-14 0 -31 31q-29 53 -54 76q304 64 582 181q233 99 365 200q55 41 90 92q62 -41 100 -76q21 -21 21 -31zM1798 569q0 -15 -22 -22q-43 -15 -99 -64
q-472 -387 -1275 -559q-18 -4 -25 -4q-13 0 -25 29q-23 57 -61 88q411 73 770 228q308 134 494 292q93 78 125 127q65 -49 104 -88q14 -17 14 -27zM1620 1085q0 -16 -25 -22q-22 -5 -79 -51q-196 -157 -488 -288q-266 -120 -534 -181q-22 -5 -28 -5q-13 0 -25 29
q-22 48 -56 82q314 61 622 205q245 114 404 242q63 53 90 94q55 -37 105 -80q14 -12 14 -25z" />
    <glyph glyph-name="uni5F73" unicode="&#xe0100;" 
d="M1397 1135q0 -16 -20 -25q-25 -10 -54 -45q-85 -102 -223 -219v-711l4 -262q0 -16 -16 -16h-103q-16 0 -16 16l4 262v354q0 23 6 263q-188 -139 -383 -232q-24 -10 -31 -10q-10 0 -34 31q-28 37 -72 65q230 96 445 249q200 144 300 280q47 62 58 92q61 -30 115 -64
q20 -13 20 -28zM1350 1587q0 -15 -31 -29q-25 -11 -67 -53q-273 -258 -635 -405q-21 -9 -29 -9q-11 0 -33 29q-40 51 -76 72q204 66 407 192q170 106 259 205q58 64 72 92q73 -39 110 -66q23 -16 23 -28z" />
    <glyph glyph-name="uni5FC3" unicode="&#xe0100;" 
d="M1540 377q-5 -191 -33 -277q-24 -73 -75 -106q-100 -72 -359 -72q-228 0 -303 39q-49 25 -69 65q-21 43 -21 121v799q0 118 -12 187q74 -4 137 -17q29 -6 29 -20q0 -9 -10 -29q-13 -24 -13 -133v-748q0 -89 49 -112q48 -23 219 -23q199 0 252 45q48 34 63 110
q14 78 13 265q37 -26 98 -45q25 -8 30 -13q6 -5 6 -19q0 -3 -1 -17zM1950 348q3 -7 3 -12q0 -11 -26 -23l-67 -32q-26 -12 -31 -12t-8 10q-96 339 -274 612q-5 7 -5 13q0 12 19 20l69 28q15 6 22 6q9 0 17 -12q178 -280 281 -598zM1335 1372q9 -6 9 -11q0 -6 -11 -24
l-37 -65q-16 -26 -23 -26q-4 0 -11 6q-254 190 -535 290q-11 5 -11 11t11 24l37 53q14 22 20 22q3 0 11 -3q307 -114 540 -277zM479 879q-56 -344 -215 -666q-7 -13 -17 -13q-7 0 -22 7l-65 29q-30 13 -30 24q0 4 3 10q163 292 217 642q2 12 8 12q4 0 29 -6l66 -15
q27 -6 27 -18q0 -2 -1 -6z" />
    <glyph glyph-name="uni6208" unicode="&#xe0100;" 
d="M1910 264q-75 -373 -262 -373q-130 0 -281 134q-131 117 -231 297q-333 -248 -798 -390q-23 -7 -30 -7q-12 0 -30 34q-33 59 -65 86q494 121 864 393q-121 262 -182 627l-428 -33q-236 -17 -271 -22q-5 -1 -7 -1q-9 0 -11 15l-8 98q-1 5 -1 8q0 7 15 7q55 0 276 18
l418 31q-15 126 -24 252q-15 180 -29 250q112 -5 145 -9q27 -3 27 -20q0 -10 -5 -23q-6 -15 -7 -18q-7 -25 -7 -72q0 -39 5 -102q5 -109 22 -248l572 43q207 17 276 29q14 0 17 -17l6 -92v-8q0 -10 -15 -10l-276 -21l-561 -45q52 -314 157 -557q156 132 256 281
q72 109 93 176q79 -44 108 -66q23 -17 23 -30t-31 -35q-10 -7 -65 -86q-139 -200 -328 -357q103 -187 229 -289q97 -78 172 -78q116 0 160 345q30 -27 82 -53q35 -19 35 -34q0 -8 -5 -28zM1589 1430q7 -6 7 -11q0 -7 -13 -20l-45 -45q-18 -20 -25 -20q-5 0 -14 9
q-131 122 -281 209q-10 8 -10 12q0 7 16 21l48 41q12 12 17 12q3 0 11 -4q165 -92 289 -204z" />
    <glyph glyph-name="uni6238" unicode="&#xe0100;" 
d="M1692 474q0 -16 -14 -16h-103q-16 0 -16 16v109h-1028q-15 -115 -21 -152q-53 -308 -246 -538q-19 -23 -24 -23q-6 0 -29 23q-37 37 -86 55q219 214 266 541q23 143 23 371l-4 332q0 16 16 16l289 -4h672l290 4q15 0 15 -16l-4 -201v-320zM1559 702v383h-1018v-307
q0 -49 -2 -76h1020zM1919 1449q0 -16 -17 -16l-274 4h-1157l-273 -4q-16 0 -16 16v93q0 16 16 16l273 -4h1157l274 4q17 0 17 -16v-93z" />
    <glyph glyph-name="uni624B" unicode="&#xe0100;" 
d="M1900 509q0 -16 -17 -16l-270 4h-518v-137l4 -260q0 -104 -53 -147q-53 -45 -284 -45h-44q-31 0 -39 8q-7 6 -14 35q-14 63 -37 100q107 -12 229 -12q69 0 92 25q17 20 17 67v366h-541l-270 -4q-16 0 -16 16v95q0 16 16 16l270 -4h541v326h-356l-289 -4q-17 0 -17 16v95
q0 16 17 16l289 -4h356v329q-325 -48 -588 -71q-14 -2 -21 -2q-15 0 -21 9q-4 6 -13 31q-14 42 -43 78q379 23 680 74q218 36 438 98q103 32 158 66q51 -39 100 -88q14 -14 14 -27q0 -18 -27 -18q-34 0 -79 -15q-228 -69 -469 -112v-352h363l286 4q17 0 17 -16v-95
q0 -16 -17 -16l-286 4h-363v-326h518l270 4q17 0 17 -16v-95z" />
    <glyph glyph-name="uni652F" unicode="&#xe0100;" 
d="M1933 -13q-38 -35 -61 -90q-15 -33 -30 -33q-7 0 -28 4q-509 132 -800 348q-315 -219 -781 -346q-20 -5 -27 -5q-11 0 -28 34q-22 45 -55 78q489 118 790 319q-225 198 -360 504q-105 -1 -182 -3q-14 0 -40 -1h-12q-16 0 -16 16v91q0 14 16 14l285 -4h340v328h-504
l-272 -4q-17 0 -17 16v91q0 16 17 16l272 -4h504v88q0 184 -16 248q85 -4 143 -12q29 -4 29 -21q0 -7 -5 -21q-7 -16 -8 -20q-14 -48 -14 -166v-96h539l272 4q16 0 16 -16v-91q0 -16 -16 -16l-272 4h-539v-328h340q31 0 51 8q13 4 21 4q16 0 55 -39t39 -58q0 -12 -20 -26
q-24 -17 -43 -49q-163 -268 -398 -457q296 -203 815 -309zM1390 800h-700q120 -254 328 -430q221 173 372 430z" />
    <glyph glyph-name="uni6534" unicode="&#xe0100;" 
d="M1935 -10q-35 -36 -59 -90q-17 -37 -31 -37q-8 0 -26 6q-495 130 -799 350q-314 -215 -780 -348q-19 -6 -27 -6q-13 0 -31 35q-16 34 -57 75q481 120 795 324q-257 222 -400 555q-89 -1 -157 -3q-5 0 -35 -1h-10q-17 0 -17 16v87q0 18 17 18l284 -4h336v477
q0 166 -14 248q85 -4 143 -13q27 -3 27 -18q0 -13 -12 -41q-15 -36 -15 -168v-86h491l232 4q16 0 16 -16v-93q0 -16 -16 -16l-232 4h-491v-282h387q32 0 47 6q13 4 21 4q18 0 57 -39q37 -40 37 -55q0 -12 -18 -23q-18 -10 -41 -51q-160 -297 -429 -510q301 -197 807 -309z
M1436 854h-785q135 -287 375 -479q254 193 410 479z" />
    <glyph glyph-name="uni6587" unicode="&#xe0100;" 
d="M1938 6q-29 -29 -62 -94q-16 -33 -28 -33t-31 8q-480 182 -793 459q-303 -269 -788 -451q-29 -8 -31 -8q-12 0 -29 31q-30 57 -63 82q516 173 817 436q-274 283 -418 768h-71l-271 -4q-16 0 -16 16v95q0 16 16 16l271 -4h510v139q0 160 -17 226q97 -4 143 -11
q25 -3 25 -18q0 -10 -12 -39q-10 -21 -10 -156v-141h540l271 4q18 0 18 -16v-95q0 -16 -18 -16l-271 4h-94q-133 -491 -407 -768q324 -275 819 -430zM1387 1204h-748q135 -434 385 -682q250 253 363 682z" />
    <glyph glyph-name="uni6597" unicode="&#xe0100;" 
d="M1904 494q1 -8 1 -10q0 -7 -13 -9q-15 0 -274 -31l-197 -24v-189l4 -360q0 -16 -16 -16h-105q-16 0 -16 16l4 358v174l-836 -102q-63 -7 -266 -36q-4 -1 -7 -1q-9 0 -11 15l-10 96q-1 4 -1 7q0 9 15 11q48 0 270 29l846 104v885q0 191 -16 283q84 -3 145 -13
q23 -3 23 -18t-8 -37q-15 -39 -15 -209v-874l191 24q122 15 207 29q22 3 45 8q13 2 16 2q5 1 7 1q7 0 9 -15zM1044 1220q7 -7 7 -11q0 -5 -13 -22l-47 -57q-19 -22 -26 -22q-4 0 -11 8q-129 159 -346 297q-8 5 -8 10q0 6 16 25l45 53q14 15 19 15q4 0 12 -5
q193 -119 352 -291zM840 774q7 -6 7 -12q0 -7 -12 -21l-45 -61q-14 -20 -22 -20q-6 0 -14 9q-165 171 -363 275q-9 4 -9 10q0 7 15 27l41 53q12 16 21 16q5 0 12 -4q200 -113 369 -272z" />
    <glyph glyph-name="uni65A4" unicode="&#xe0100;" 
d="M1889 872q0 -16 -17 -16l-291 4h-280v-684l4 -305q0 -17 -17 -17h-108q-16 0 -16 17l4 305v684h-588q-8 -318 -82 -551q-82 -252 -240 -415q-20 -21 -29 -21q-7 0 -26 23q-33 41 -80 63q181 155 260 426q68 218 68 571v252q0 181 -15 267q63 -12 136 -41q514 72 829 174
q100 33 150 63q56 -43 93 -84q19 -18 19 -33q0 -20 -33 -20q-27 0 -113 -29q-394 -117 -935 -184v-340h999l291 4q17 0 17 -16v-97z" />
    <glyph glyph-name="uni65B9" unicode="&#xe0100;" 
d="M1925 1212q0 -16 -17 -16l-266 4h-729q-6 -168 -25 -313h516l240 4q19 0 19 -17v-6l-11 -143q-29 -433 -73 -618q-31 -125 -95 -171q-55 -40 -159 -40q-83 0 -197 12q-30 3 -36 10q-4 7 -7 37q-7 63 -29 96q142 -24 260 -24q104 0 136 125q46 184 69 614h-649
q-59 -330 -221 -540q-143 -186 -408 -335q-21 -12 -31 -12q-11 0 -32 33q-23 33 -74 65q392 193 537 488q128 261 135 735h-361l-266 -4q-16 0 -16 16v95q0 16 16 16l266 -4h529v158q0 153 -15 211q77 0 142 -11q24 -3 24 -16q0 -10 -12 -39q-10 -26 -10 -143v-160h567
l266 4q17 0 17 -16v-95z" />
    <glyph glyph-name="uni65E0" unicode="&#xe0100;" 
d="M1894 866q0 -14 -16 -14l-272 4h-588q-49 -190 -125 -336q-114 -219 -266 -369q-144 -141 -355 -256q-21 -12 -30 -12q-12 0 -33 27q-36 45 -84 70q252 114 413 269q136 130 238 320q70 131 111 287h-434l-275 -4q-16 0 -16 14v97q0 16 16 16l275 -4h460q38 206 41 456
h-380l-285 -4q-17 0 -17 16v93q0 16 17 16l285 -4h917l285 4q16 0 16 -16v-93q0 -16 -16 -16l-285 4h-405q-7 -258 -43 -456h563l272 4q16 0 16 -16v-97zM1923 240q-16 -190 -98 -266q-77 -74 -373 -74q-173 0 -248 12q-65 11 -96 37q-33 29 -43 69q-10 41 -10 134v378
q0 164 -12 226q63 -3 139 -11q27 -3 27 -18q0 -13 -12 -37q-13 -27 -13 -158v-344q0 -112 25 -136q33 -31 256 -31q225 0 276 51q54 60 57 264q47 -29 91 -43q24 -10 29 -16q6 -7 6 -22q0 -6 -1 -15z" />
    <glyph glyph-name="uni65E5" unicode="&#xe0100;" 
d="M1628 -59q0 -16 -16 -16h-99q-16 0 -16 16v125h-948v-129q0 -16 -14 -16h-101q-16 0 -16 16l4 702v395l-4 516q0 17 16 17l285 -4h608l285 4q16 0 16 -17l-4 -464v-447zM1497 183v593h-948v-593h948zM1497 891v555h-948v-555h948z" />
    <glyph glyph-name="uni66F0" unicode="&#xe0100;" 
d="M1732 -92q0 -16 -16 -16h-99q-16 0 -16 16v125h-1155v-129q0 -16 -16 -16h-99q-16 0 -16 16l4 702v395l-4 517q0 16 16 16l291 -4h803l291 4q16 0 16 -16l-4 -465v-447zM1601 150v1263h-1155v-555h698l267 4q16 0 16 -16v-91q0 -16 -16 -16l-267 4h-698v-593h1155z" />
    <glyph glyph-name="uni6708" unicode="&#xe0100;" 
d="M1574 69q0 -97 -58 -151q-35 -31 -111 -39q-45 -4 -182 -4q-32 0 -38 6q-5 6 -13 35q-14 59 -37 96q120 -10 215 -10q93 0 93 94v448h-801q-32 -234 -116 -394q-68 -131 -202 -269q-19 -22 -26 -22q-6 0 -33 20q-42 33 -88 47q235 217 305 468q60 215 60 660v250l-4 269
q0 16 16 16l268 -4h467l268 4q17 0 17 -16l-4 -269v-909zM1443 659v352h-774q-4 -213 -15 -352h789zM1443 1126v342h-774v-342h774z" />
    <glyph glyph-name="uni6728" unicode="&#xe0100;" 
d="M1976 215q-36 -29 -65 -82q-16 -31 -27 -31q-8 0 -29 14q-526 336 -794 879q0 -368 8 -809q2 -80 4 -224q2 -79 2 -91q0 -17 -16 -17h-107q-18 0 -18 17q0 11 3 189q10 525 11 917q-135 -283 -346 -522q-184 -209 -397 -349q-20 -14 -29 -14t-27 27q-26 44 -69 77
q256 140 486 399q201 226 321 476h-438l-273 -4q-18 0 -18 18v89q0 18 18 18l273 -4h491v252q0 181 -14 248q81 -4 141 -13q25 -3 25 -16q0 -10 -5 -24q-6 -16 -8 -21q-10 -41 -10 -172v-254h537l274 4q16 0 16 -18v-89q0 -18 -16 -18l-274 4h-488q308 -559 858 -856z" />
    <glyph glyph-name="uni6B20" unicode="&#xe0100;" 
d="M1939 12q-36 -34 -65 -88q-18 -33 -27 -33q-2 0 -30 8q-641 236 -787 754q-71 -272 -271 -461q-188 -176 -503 -295q-19 -8 -31 -8q-10 0 -30 29q-28 43 -68 73q804 251 811 906q0 125 -10 182q72 -3 133 -12q31 -6 31 -23q0 -8 -5 -21q-6 -14 -8 -20q-3 -10 -10 -104
q53 -347 277 -566q212 -209 593 -321zM1813 1249q0 -17 -14 -29q-29 -20 -43 -51q-76 -173 -220 -372q-18 -25 -26 -25q-9 0 -33 18q-37 25 -82 35q138 159 239 385h-977q-124 -251 -284 -424q-21 -20 -29 -20q-5 0 -29 20q-39 33 -79 49q271 261 405 662q36 107 41 195
q84 -18 133 -35q29 -9 29 -29q0 -12 -21 -33q-20 -24 -45 -94q-30 -88 -67 -172h921q38 0 54 6q12 6 24 6q22 0 64 -39q39 -34 39 -53z" />
    <glyph glyph-name="uni6B62" unicode="&#xe0100;" 
d="M1906 -19q0 -16 -16 -16l-270 4h-1188l-271 -4q-16 0 -16 16v103q0 16 16 16l271 -4h61v856q0 185 -14 271q85 -4 145 -13q25 -3 25 -18q0 -10 -10 -37q-13 -31 -13 -192v-867h412v1317q0 168 -16 268q88 -3 147 -12q25 -3 25 -18q0 -6 -4 -19q-5 -15 -6 -20
q-13 -45 -13 -195v-434h309l281 4q16 0 16 -16v-105q0 -16 -16 -16l-281 4h-309v-758h449l270 4q16 0 16 -16v-103z" />
    <glyph glyph-name="uni6B79" unicode="&#xe0100;" 
d="M1888 1443q0 -16 -16 -16l-271 4h-610q-60 -141 -146 -280h613q27 0 47 8t27 8q20 0 63 -41q41 -41 41 -55t-18 -29q-12 -9 -54 -92q-102 -221 -190 -353q-95 -142 -234 -280q-290 -288 -737 -459q-18 -6 -29 -6q-13 0 -32 31q-28 41 -70 74q456 145 752 434l16 14
q-169 167 -387 297q-10 7 -10 12q0 7 18 25l43 43q17 17 24 17q5 0 13 -5q221 -132 393 -290q190 210 316 528h-684q-171 -231 -443 -414q-26 -16 -37 -16q-14 0 -34 27q-33 42 -68 61q466 266 661 741h-413l-273 -4q-16 0 -16 16v97q0 16 16 16l273 -4h1169l271 4
q16 0 16 -16v-97z" />
    <glyph glyph-name="uni6BB3" unicode="&#xe0100;" 
d="M1938 16q-30 -25 -58 -80q-19 -37 -35 -37q-8 0 -26 4q-512 120 -789 295q-315 -194 -796 -305q-18 -4 -25 -4q-15 0 -35 35q-29 49 -59 73q458 80 807 275q-215 166 -346 403q-94 -1 -164 -3q-7 0 -36 -1h-11q-17 0 -17 16v87q0 16 17 16l282 -4h764q31 0 47 8
q12 6 21 6q18 0 57 -37q43 -46 43 -61q0 -18 -20 -29q-31 -20 -66 -64q-150 -196 -352 -339q296 -164 797 -254zM1385 675h-674q123 -202 322 -338q235 157 352 338zM1868 1196q-13 -126 -74 -181q-62 -53 -284 -53q-181 0 -236 33q-61 37 -61 141v363h-444
q-7 -260 -124 -414q-105 -138 -321 -223q-20 -8 -29 -8q-14 0 -34 26q-35 42 -76 64q268 84 370 238q85 127 85 344l-5 76q0 16 16 16l214 -4h248l217 4q18 0 18 -16l-4 -179v-231q0 -74 14 -88q27 -27 172 -27q150 0 187 43q30 33 32 180q26 -23 84 -47q37 -15 37 -35
q0 -7 -2 -22z" />
    <glyph glyph-name="uni6BCB" unicode="&#xe0100;" 
d="M1964 839q0 -16 -17 -16l-251 4h-64q-19 -244 -49 -491l264 4q16 0 16 -16v-89q0 -16 -16 -16l-280 4v-10q-24 -176 -77 -248q-63 -84 -194 -84q-102 0 -176 6q-28 2 -36 9q-6 6 -13 30q-13 56 -35 94q141 -20 244 -20q78 0 117 66q29 51 45 157h-1039q-28 -108 -41 -150
q-5 -17 -28 -17q-13 0 -45 3q-67 6 -67 20q0 5 3 13q44 126 64 207q60 249 106 528h-31l-254 -4q-16 0 -16 16v89q0 16 16 16l254 -4h47q10 56 45 297q27 186 27 311q0 21 19 21l280 -4h594l283 4q18 0 18 -21l-10 -180q-11 -233 -27 -428h56l251 4q17 0 17 -16v-89z
M1509 827h-450q-26 -216 -74 -491h473q35 273 51 491zM1546 1452h-422q-16 -217 -51 -512h444q21 281 29 512zM938 827h-416q-46 -268 -92 -491h430q44 234 78 491zM997 1452h-389q-36 -293 -70 -512h414q28 241 45 512z" />
    <glyph glyph-name="uni6BD4" unicode="&#xe0100;" 
d="M1920 293q-7 -160 -35 -231q-20 -49 -63 -85q-83 -65 -318 -65q-157 0 -224 13q-57 11 -95 40q-32 26 -44 59q-13 37 -13 105v1163q0 236 -15 328q84 -4 140 -12q33 -4 33 -25q0 -9 -7 -20q-7 -13 -8 -15q-12 -32 -12 -252v-419q233 132 417 297q70 59 99 108
q50 -37 98 -88q15 -14 15 -31q0 -15 -29 -22q-30 -7 -113 -74q-189 -154 -487 -317v-531q0 -85 7 -116q7 -26 27 -43q38 -29 215 -29q174 0 232 47q37 29 50 105q10 63 13 206q29 -24 86 -45q32 -12 32 -32q0 -4 -1 -19zM975 330q-3 -38 -3 -55q0 -11 1 -25q1 -16 1 -22
q0 -18 -8 -24q-5 -5 -26 -14q-342 -144 -647 -235q-62 -20 -78 -33q-15 -12 -25 -12q-13 0 -22 21q-18 54 -37 128q80 6 164 29l78 20v1223q0 218 -13 283q74 -3 142 -10q27 -3 27 -19q0 -10 -13 -38q-12 -28 -12 -211v-322h227l225 4q17 0 17 -14v-93q0 -16 -17 -16l-225 4
h-227v-750q193 63 471 181z" />
    <glyph glyph-name="uni6BDB" unicode="&#xe0100;" 
d="M1890 588v-6q0 -13 -17 -13q-35 0 -270 -22l-610 -60v-284q0 -125 100 -142q89 -16 252 -16q253 0 322 53q43 33 61 108q17 66 23 193q34 -31 86 -51q34 -14 34 -32q0 -7 -2 -19q-22 -220 -112 -289q-54 -44 -158 -62q-97 -16 -272 -16q-244 0 -322 27q-141 45 -141 225
v293l-426 -39q-98 -9 -268 -30q-5 -1 -8 -1q-8 0 -11 15l-8 96v8q0 13 17 13q59 0 270 20l434 41v303l-317 -33q-27 -2 -283 -34q-5 -1 -7 -1q-9 0 -11 17l-9 98v7q0 10 19 10q39 0 282 24l326 33v315q-191 -42 -471 -84q-18 -3 -24 -3q-16 0 -29 36q-21 44 -49 76
q532 54 1011 227q86 34 131 74q48 -30 105 -80q18 -15 18 -31q0 -21 -45 -24q-25 -2 -125 -39q-170 -64 -393 -121v-332l473 49q115 12 279 39q4 1 6 1q10 0 12 -17l10 -98q1 -4 1 -6q0 -10 -19 -13q-201 -18 -283 -26l-479 -52v-303l604 58q112 10 266 33h6q10 0 13 -15z
" />
    <glyph glyph-name="uni6C0F" unicode="&#xe0100;" 
d="M1918 219q-55 -307 -236 -307q-138 0 -280 138q-121 117 -195 288q-86 184 -135 453l-561 -29v-623q270 69 526 168q-6 -37 -6 -86q0 -33 -6 -41q-6 -6 -35 -16q-277 -104 -682 -207q-63 -17 -84 -33q-16 -12 -27 -12q-12 0 -22 25q-14 37 -35 124q96 11 184 33l56 12
v1035q0 210 -13 301q61 -15 137 -43q537 63 930 200q74 26 109 54q54 -35 100 -78q19 -15 19 -31q0 -17 -41 -20q-19 -3 -48 -13q-32 -11 -42 -14q-205 -64 -392 -108q10 -278 39 -474l375 19q220 11 293 18q14 0 14 -18l2 -92q0 -19 -16 -19q-86 0 -293 -8l-356 -18
q42 -219 129 -414q67 -152 186 -254q96 -82 164 -82q103 0 125 287q17 -17 84 -55q36 -19 36 -35q0 -5 -3 -25zM1051 909q-29 197 -39 453q-226 -47 -501 -76v-403z" />
    <glyph glyph-name="uni6C14" unicode="&#xe0100;" 
d="M1966 201q-41 -314 -192 -314q-155 0 -250 303q-62 191 -65 535h-906l-288 -4q-17 0 -17 16v93q0 16 17 16l288 -4h727l289 4q21 0 21 -18q-6 -75 -6 -157q0 -68 4 -127q13 -204 53 -321q66 -195 133 -195q60 0 90 279q29 -28 74 -51q30 -16 30 -35q0 -7 -2 -20z
M1842 1333q0 -16 -17 -16l-289 4h-1013q-96 -164 -242 -314q-23 -22 -31 -22q-6 0 -28 23q-28 29 -68 47q138 127 225 258q78 118 144 283q25 59 32 123q74 -18 128 -39q20 -9 20 -27q0 -13 -14 -25q-29 -20 -50 -69q-49 -109 -55 -121h952l289 4q17 0 17 -16v-93z
M1627 1046q0 -16 -17 -16l-272 4h-516l-273 -4q-16 0 -16 16v87q0 18 16 18l273 -4h516l272 4q17 0 17 -18v-87z" />
    <glyph glyph-name="uni6C34" unicode="&#xe0100;" 
d="M1960 217q-38 -29 -71 -80q-18 -26 -27 -26q-2 0 -31 14q-271 159 -483 441q-190 255 -270 534q16 -951 16 -1033q0 -105 -74 -145q-55 -35 -254 -35q-32 0 -38 6t-15 35q-16 59 -43 95q77 -7 176 -7q68 0 94 19q23 17 23 57v1356q0 158 -14 225q68 -3 137 -10
q27 -3 27 -18q0 -1 -13 -43q-12 -34 -12 -152v-96q54 -250 196 -490q163 135 324 334q34 42 57 98q66 -38 111 -75q18 -14 18 -29q0 -13 -25 -27q-30 -17 -94 -86q-161 -172 -331 -311q255 -374 616 -551zM850 1035q0 -13 -16 -26q-23 -19 -37 -62q-174 -499 -586 -821
q-22 -18 -29 -18q-11 0 -28 27q-32 44 -68 65q428 294 598 805h-293l-209 -4q-16 0 -16 16v93q0 14 16 14l209 -4h303q24 0 39 6q13 6 21 6q21 0 55 -37q41 -41 41 -60z" />
    <glyph glyph-name="uni706B" unicode="&#xe0100;" 
d="M1933 -10q-43 -34 -73 -88q-14 -31 -27 -31q-9 0 -31 12q-352 183 -538 455q-171 249 -226 604q-17 -150 -57 -287q-88 -295 -289 -488q-161 -154 -440 -288q-23 -9 -30 -9q-10 0 -27 30q-27 47 -70 77q345 142 520 330q152 163 227 414q80 260 80 711q0 142 -14 235
q64 -3 141 -14q29 -3 29 -21q0 -2 -14 -41q-10 -29 -13 -153v-29q20 -597 257 -950q204 -304 595 -469zM623 1208q-94 -323 -250 -534q-7 -9 -15 -9t-20 7l-76 39q-15 6 -15 15q0 5 5 11q168 203 242 508q3 13 11 13q5 0 21 -5l76 -22q22 -7 22 -16q0 -2 -1 -7zM1792 1214
q0 -10 -16 -26q-25 -26 -41 -59q-101 -213 -232 -389q-18 -25 -26 -25q-5 0 -31 16q-35 20 -80 31q166 211 246 416q27 72 31 110q78 -25 127 -49q22 -12 22 -25z" />
    <glyph glyph-name="uni722A" unicode="&#xe0100;" 
d="M1965 -18q-41 -28 -75 -76q-16 -25 -25 -25q-7 0 -22 25q-236 332 -320 760q-52 263 -78 782q-174 -40 -372 -76v-1104l4 -334q0 -16 -17 -16h-104q-16 0 -16 16l4 334v1082q-177 -28 -405 -52v-284q0 -194 -28 -397q-21 -152 -48 -246q-82 -269 -246 -481
q-18 -25 -27 -25q-7 0 -24 20q-40 46 -78 68q176 200 254 469q68 232 68 582v182q0 180 -15 266q72 -12 139 -39q546 58 997 178q87 24 144 58q53 -42 90 -82q15 -15 15 -29q0 -17 -27 -20q-44 -4 -109 -21q-33 -10 -78 -20q23 -568 100 -871q90 -350 299 -624z" />
    <glyph glyph-name="uni7236" unicode="&#xe0100;" 
d="M1940 12q-38 -28 -66 -92q-12 -33 -24 -33q-2 0 -31 8q-478 142 -791 443q-309 -303 -788 -451q-29 -8 -31 -8q-11 0 -28 33q-25 43 -68 80q522 144 825 438q-190 208 -326 510q-2 6 -2 10q0 10 27 23l60 28q14 8 21 8q8 0 13 -15q109 -268 295 -474q136 158 250 375
q34 64 51 133q64 -25 121 -55q23 -13 23 -27q0 -8 -23 -31q-15 -12 -55 -81q-132 -235 -279 -404q333 -311 826 -418zM1899 1085q-42 -29 -72 -73q-20 -29 -28 -29q-6 0 -31 14q-330 198 -584 535q-6 7 -6 12q0 8 20 21l52 34q23 15 28 15t11 -7q271 -349 610 -522z
M865 1526q0 -16 -23 -29q-22 -15 -49 -53q-187 -288 -483 -478q-26 -14 -29 -14q-11 0 -31 29q-35 46 -78 66q291 148 480 419q52 78 77 154q64 -29 117 -68q19 -15 19 -26z" />
    <glyph glyph-name="uni723B" unicode="&#xe0100;" 
d="M1913 8q-34 -31 -58 -82q-18 -37 -32 -37q-12 0 -33 6q-505 157 -780 388q-277 -242 -762 -390q-22 -6 -29 -6q-15 0 -29 31q-23 48 -59 80q493 128 784 371q-182 185 -321 460q-3 7 -3 11q0 8 25 20l56 27q13 7 20 7q8 0 12 -10q134 -264 306 -429q115 118 204 268
q52 85 80 176q65 -22 115 -49q27 -15 27 -29q0 -15 -25 -35q-21 -18 -69 -98q-111 -181 -240 -315q288 -235 811 -365zM1712 983l-43 -60q-16 -23 -24 -23q-5 0 -13 5q-291 182 -569 319q-347 -186 -760 -284q-17 -4 -24 -4q-14 0 -33 33q-24 44 -56 75q389 72 740 244
q-233 109 -496 199q-10 3 -10 8q0 6 14 22l41 47q14 19 23 19q3 0 10 -2q256 -85 551 -221q191 107 328 237q56 50 77 90q74 -33 117 -59q19 -12 19 -27t-27 -22q-11 -4 -57 -39q-157 -134 -330 -242q227 -110 522 -285q9 -6 9 -10q0 -5 -9 -20z" />
    <glyph glyph-name="uni723F" unicode="&#xe0100;" 
d="M1522 1665q0 -4 -11 -35q-12 -40 -12 -211v-1190l4 -363q0 -16 -16 -16h-105q-16 0 -16 16l4 361v362h-564q-7 -262 -87 -426q-82 -167 -259 -289q-22 -12 -29 -12q-10 0 -31 27q-36 47 -69 65q208 122 286 296q59 130 64 339h-74l-272 -4q-16 0 -16 16v89q0 16 16 16
l272 -4h763v342h-511l-252 -4q-16 0 -16 16l4 187v197q0 103 -12 180q89 -4 137 -10q25 -3 25 -19q0 -7 -4 -18q-5 -13 -7 -19q-10 -24 -10 -114v-283h646v258q0 199 -14 281q51 -3 135 -11q31 -3 31 -20z" />
    <glyph glyph-name="uni7247" unicode="&#xe0100;" 
d="M1876 1044q0 -16 -16 -16l-289 4h-1009q-5 -232 -15 -346h555l268 4q17 0 17 -16l-4 -213v-281l4 -307q0 -17 -17 -17h-102q-16 0 -16 17l4 307v385h-721q-8 -74 -14 -109q-52 -298 -242 -544q-19 -23 -24 -23t-25 20q-39 45 -84 66q195 213 248 510q41 233 41 676v230
q0 191 -15 268q64 -3 140 -10q27 -3 27 -21q0 -14 -15 -39q-10 -20 -10 -182v-254h567v270q0 193 -15 263q83 -4 142 -13q25 -3 25 -18q0 -6 -13 -39q-10 -23 -10 -180v-283h313l289 4q16 0 16 -16v-97z" />
    <glyph glyph-name="uni7259" unicode="&#xe0101;" 
d="M1888 819q0 -16 -17 -16l-278 4h-174l6 -440l2 -287q0 -95 -47 -140q-34 -34 -98 -45q-62 -12 -193 -12q-32 0 -39 6q-6 6 -12 35q-12 52 -39 90q84 -8 186 -8q63 0 88 24q23 23 23 74l-2 396q0 182 2 276q-381 -480 -1069 -750q-24 -10 -29 -10q-12 0 -30 31
q-27 46 -66 78q356 123 648 317q254 169 417 365h-680q-22 -61 -55 -137q-9 -18 -26 -18q-6 0 -17 1l-76 11q-23 3 -23 12q0 5 5 14q121 259 169 465q22 98 27 149q76 -6 137 -20q19 -5 19 -21q0 -9 -16 -32q-16 -22 -33 -82q-48 -163 -70 -227h760l-4 509h-725l-287 -4
q-16 0 -16 16v93q0 16 16 16l287 -4h942l284 4q17 0 17 -16v-93q0 -16 -17 -16l-284 4h-90l6 -509h176l278 4q17 0 17 -16v-91z" />
    <glyph glyph-name="uni725B" unicode="&#xe0100;" 
d="M1900 585q0 -16 -16 -16l-271 4h-522v-338l4 -369q0 -16 -16 -16h-103q-16 0 -16 16l4 367v340h-537l-270 -4q-16 0 -16 16v95q0 14 16 14l270 -2h537v444h-459q-86 -152 -213 -283q-17 -20 -26 -20q-8 0 -29 25q-35 35 -74 51q249 232 350 541q24 73 29 135
q74 -14 123 -31q29 -11 29 -25q0 -12 -16 -28q-21 -18 -33 -56q-46 -120 -80 -192h399v184q0 187 -14 258q81 -3 139 -12q25 -3 25 -16q0 -2 -10 -37q-13 -41 -13 -187v-190h365l286 4q15 0 15 -16v-93q0 -16 -15 -16l-286 4h-365v-444h522l271 2q16 0 16 -14v-95z" />
    <glyph glyph-name="uni72AC" unicode="&#xe0100;" 
d="M1944 -8q-38 -38 -64 -86q-19 -31 -28 -31q-5 0 -29 10q-327 167 -517 397q-188 227 -302 578q-37 -177 -99 -311q-191 -411 -653 -654q-24 -10 -31 -10q-11 0 -28 27q-32 47 -72 76q494 223 674 628q71 158 104 371h-456l-273 -4q-16 0 -16 16v94q0 17 16 17l273 -4h471
q16 148 16 346q0 153 -14 234q77 -4 141 -11q29 -2 29 -20q0 -5 -10 -41q-17 -45 -17 -156q-4 -213 -18 -352h567l272 4q17 0 17 -17v-94q0 -16 -17 -16l-272 4h-531q137 -426 373 -669q187 -192 494 -326zM1655 1319q6 -8 6 -12q0 -7 -16 -21l-54 -49q-13 -14 -20 -14
q-6 0 -14 11q-106 148 -259 269q-10 7 -10 13t15 18l49 41q13 11 20 11q4 0 13 -5q146 -110 270 -262z" />
    <glyph glyph-name="uni7384" unicode="&#xe0100;" 
d="M1823 -51q3 -7 3 -11q0 -8 -22 -20l-65 -35q-20 -10 -25 -10q-6 0 -12 13q-60 116 -119 208q-601 -91 -1237 -149q-61 -6 -76 -15q-20 -12 -37 -12t-26 31q-15 47 -29 127q45 -2 79 -2q68 0 146 6q72 4 109 8q159 150 338 336q-222 255 -469 455q-8 6 -8 11q0 7 18 23
l49 48q13 13 20 13q4 0 13 -7q138 -115 143 -119q120 140 224 297q36 57 63 135q61 -24 123 -61q20 -13 20 -29q0 -14 -24 -29q-26 -15 -62 -69q-110 -161 -256 -326q127 -117 238 -244q190 208 293 342q94 121 131 209q67 -37 121 -78q20 -13 20 -30q0 -14 -27 -29
q-34 -17 -94 -92q-285 -361 -698 -742q439 44 825 101q-70 97 -172 213q-6 6 -6 10q0 6 19 18l53 33q12 9 19 9q5 0 14 -9q223 -247 383 -528zM1919 1302q0 -16 -17 -16l-268 4h-1214l-269 -4q-16 0 -16 16v95q0 16 16 16l269 -4h518v78q0 149 -15 207q58 0 139 -13
q25 -3 25 -16q0 -8 -12 -37q-10 -26 -10 -143v-76h569l268 4q17 0 17 -16v-95z" />
    <glyph glyph-name="uni7389" unicode="&#xe0100;" 
d="M1900 35q0 -16 -16 -16l-268 4h-1192l-271 -4q-16 0 -16 16v99q0 16 16 16l271 -4h510v618h-277l-289 -4q-16 0 -16 16v97q0 16 16 16l289 -4h277v522h-406l-285 -4q-16 0 -16 16v99q0 16 16 16l285 -4h997l283 4q18 0 18 -16v-99q0 -16 -18 -16l-283 4h-460v-522h333
l289 4q17 0 17 -16v-97q0 -16 -17 -16l-289 4h-333v-618h551l268 4q16 0 16 -16v-99zM1624 342q5 -9 5 -14q0 -8 -18 -19l-57 -35q-18 -10 -25 -10q-6 0 -14 11q-97 159 -227 298q-7 8 -7 13q0 8 19 20l47 33q14 9 19 9t14 -9q134 -138 244 -297z" />
    <glyph glyph-name="uni74DC" unicode="&#xe0100;" 
d="M1968 -6q-44 -34 -74 -80q-18 -25 -25 -25q-6 0 -22 23q-235 328 -319 761q-54 277 -72 787q-186 -47 -391 -82v-1204q129 27 274 64q-26 65 -88 192q-3 7 -3 10q0 7 23 17l50 18q14 6 19 6q6 0 11 -10q119 -212 204 -479q2 -7 2 -11q0 -10 -21 -18l-62 -20
q-20 -7 -26 -7q-7 0 -11 13q-29 110 -57 186q-308 -84 -729 -162q-55 -12 -77 -29q-17 -12 -27 -12q-14 0 -23 20q-16 44 -36 130q103 8 221 27l229 38v1211q-174 -28 -405 -51v-316q0 -172 -28 -370q-21 -151 -46 -238q-93 -283 -250 -486q-14 -20 -21 -20t-26 23
q-29 35 -80 65q177 199 254 461q70 241 70 553v217q0 178 -15 264q70 -11 142 -39q547 61 982 178q78 21 146 58q52 -41 87 -82q13 -12 13 -31q0 -20 -31 -20q-30 0 -100 -19q-12 -4 -51 -14q17 -579 90 -875q87 -354 299 -622z" />
    <glyph glyph-name="uni74E6" unicode="&#xe0100;" 
d="M1174 471q4 -8 4 -12q0 -9 -21 -21l-55 -30q-22 -12 -27 -12q-6 0 -12 10q-79 160 -225 333q-7 8 -7 11q0 6 21 18l49 29q16 9 22 9t15 -9q152 -166 236 -326zM1938 227q-12 -178 -72 -237q-69 -66 -250 -66q-176 0 -223 27q-68 37 -68 138v20l2 63q-549 -136 -1019 -213
q-94 -17 -107 -25q-20 -12 -31 -12q-13 0 -18 16q-21 59 -37 134q111 3 246 22l88 12q161 692 248 1309h-232l-274 -4q-17 0 -17 16v97q0 16 17 16l274 -4h1141l274 4q17 0 17 -16v-97q0 -16 -17 -16l-274 4h-780q-23 -157 -49 -317h475l231 4q16 0 16 -19q-6 -80 -14 -276
l-29 -653v-22q0 -52 27 -71q32 -18 131 -18q130 0 164 45q41 48 41 240q26 -24 82 -45q38 -14 38 -32q0 -6 -1 -24zM1366 981h-608q-76 -462 -170 -850q281 49 746 158z" />
    <glyph glyph-name="uni7518" unicode="&#xe0100;" 
d="M1926 1175q0 -18 -17 -18l-266 4h-125v-657l4 -606q0 -17 -16 -17h-99q-16 0 -16 17v131h-740v-143q0 -17 -16 -17h-99q-16 0 -16 17l4 603v672h-119l-266 -4q-16 0 -16 18v89q0 16 16 16l266 -4h119v166q0 160 -16 248q60 -3 141 -11q25 -3 25 -18q0 -10 -13 -39
q-10 -22 -10 -178v-168h740v168q0 178 -14 246q66 -3 139 -11q25 -3 25 -18q0 -14 -10 -31q-13 -24 -13 -184v-170h125l266 4q17 0 17 -16v-89zM1391 140v472h-740v-472h740zM1391 723v438h-740v-438h740z" />
    <glyph glyph-name="uni751F" unicode="&#xe0100;" 
d="M1908 -8q0 -16 -16 -16l-270 4h-1194l-271 -4q-16 0 -16 16v95q0 16 16 16l271 -4h530v460h-252l-287 -4q-16 0 -16 16v93q0 16 16 16l287 -4h252v423h-483q-90 -185 -211 -329q-16 -18 -23 -18t-31 20q-37 31 -73 43q226 257 342 624q22 65 22 117q77 -16 125 -35
q25 -8 25 -22q0 -13 -16 -29q-17 -16 -33 -65q-73 -188 -74 -191h430v170q0 189 -16 281q71 -3 143 -11q25 -3 25 -18q0 -6 -4 -17q-5 -14 -6 -20q-13 -45 -13 -211v-174h379l287 4q16 0 16 -16v-91q0 -16 -16 -16l-287 4h-379v-423h285l286 4q17 0 17 -16v-93
q0 -16 -17 -16l-286 4h-285v-460h535l270 4q16 0 16 -16v-95z" />
    <glyph glyph-name="uni7528" unicode="&#xe0100;" 
d="M1800 1568l-4 -321v-909l2 -275q0 -96 -60 -141q-55 -41 -254 -41q-33 0 -39 6t-12 35q-9 51 -37 94q93 -8 203 -8q72 0 72 82v432h-573v-244l4 -339q0 -17 -17 -17h-98q-16 0 -16 17l4 339v244h-549q-21 -223 -80 -374q-43 -112 -129 -236q-18 -25 -24 -25q-8 0 -29 21
q-40 31 -86 51q139 175 189 387q51 215 51 594v307l-4 321q0 17 16 17l291 -4h870l292 4q17 0 17 -17zM1671 1106v362h-573v-362h573zM1671 633v362h-573v-362h573zM975 633v362h-532v-55q0 -134 -9 -307h541zM975 1106v362h-532v-362h532z" />
    <glyph glyph-name="uni7530" unicode="&#xe0100;" 
d="M1802 -70q0 -16 -16 -16h-97q-16 0 -16 16v123h-1298v-123q0 -16 -16 -16h-97q-16 0 -16 16l4 694v392l-4 512q0 16 16 16l289 -4h946l289 4q16 0 16 -16l-4 -461v-443zM1673 168v585h-597v-585h597zM953 168v585h-578v-585h578zM1673 864v561h-597v-561h597zM953 864
v561h-578v-561h578z" />
    <glyph glyph-name="uni758B" unicode="&#xe0100;" 
d="M1947 109q-28 -50 -37 -95q-6 -32 -13 -37q-6 -5 -34 -8q-156 -16 -426 -16q-278 0 -455 59q-135 44 -248 136q-138 110 -229 272q-91 -272 -270 -477q-20 -23 -27 -23q-8 0 -31 23q-33 33 -79 51q336 307 379 942q2 36 2 67q0 28 -3 66q74 -6 125 -18q33 -9 33 -23
q0 -2 -12 -33q-12 -23 -17 -61q-22 -210 -59 -369q84 -180 240 -307q86 -73 186 -115v1245h-463l-276 -4q-17 0 -17 16v89q0 16 17 16l276 -4h1186q40 0 55 6q2 1 6 2q9 4 13 4q19 0 65 -39q41 -36 41 -55q0 -16 -18 -29q-20 -14 -43 -51q-101 -168 -213 -284
q-25 -25 -33 -25q-6 0 -29 16q-36 28 -84 41q147 138 236 301h-594v-554h293l266 4q17 0 17 -16v-91q0 -16 -17 -16l-266 4h-293v-614q133 -29 326 -29q263 0 524 33z" />
    <glyph glyph-name="uni7592" unicode="&#xe0100;" 
d="M145 1268l64 35q8 4 12 4q8 0 14 -10q87 -120 171 -318q3 -8 3 -12q0 -7 -12 -15l-71 -45q-9 -5 -13 -5q-7 0 -10 12q-71 193 -164 329q-5 8 -5 12q0 7 11 13zM608 1298v-264q0 -356 -66 -627q-69 -292 -264 -518q-15 -18 -22 -18q-6 0 -25 18q-38 41 -76 61
q200 191 275 504q19 80 33 185q-114 -63 -211 -111q-59 -30 -72 -48q-13 -16 -25 -16q-13 0 -22 19q-25 50 -43 113q84 20 156 53q119 51 231 114q10 145 10 271l-4 362q0 19 18 19l295 -4h285v96q0 134 -12 193q85 -4 130 -11q27 -3 27 -18q0 -8 -12 -37q-10 -26 -10 -127
v-96h387l291 4q18 0 18 -18v-85q0 -18 -18 -18l-291 4h-983z" />
    <glyph glyph-name="uni7676" unicode="&#xe0100;" 
d="M1958 462q-29 -25 -58 -79q-18 -33 -26 -33q-10 0 -31 12q-568 273 -828 805q-251 -512 -796 -809q-29 -14 -33 -14q-11 0 -29 33q-20 38 -57 67q254 118 463 307q-122 143 -262 238q-11 8 -11 13q0 7 15 22l47 41q12 11 19 11q5 0 12 -6q147 -102 266 -233
q160 172 252 363h-305l-211 -4q-17 0 -17 16v87q0 16 17 16l211 -4h254l211 4q17 0 22 -16q13 -49 31 -85q54 -110 137 -227q88 80 174 184q26 35 49 85q67 -37 105 -68q16 -14 16 -23q0 -13 -22 -22q-26 -12 -58 -48q-100 -110 -196 -192q78 -89 147 -148q114 92 215 213
q34 41 53 82q54 -31 101 -63q18 -13 18 -29q0 -13 -23 -20q-22 -6 -59 -45q-112 -124 -221 -207q188 -144 408 -224z" />
    <glyph glyph-name="uni767D" unicode="&#xe0100;" 
d="M1695 -80q0 -14 -16 -14h-97q-16 0 -16 14v119h-1087v-121q0 -14 -16 -14h-97q-16 0 -16 14l4 602v359l-4 459q0 14 16 14l291 -4h133q75 134 119 252q26 66 33 123q69 -15 131 -37q24 -8 24 -25q0 -8 -21 -28q-23 -24 -36 -56q-65 -141 -117 -229h465l291 4q16 0 16 -14
l-4 -418v-400zM1566 154v495h-1087v-495h1087zM1566 762v473h-1087v-473h1087z" />
    <glyph glyph-name="uni76AE" unicode="&#xe0100;" 
d="M1942 -17q-34 -37 -56 -86q-14 -35 -28 -35q-11 0 -29 6q-435 125 -692 328q-256 -206 -621 -332q-29 -8 -31 -8q-9 0 -24 33q-24 48 -58 76q380 111 639 311q-216 204 -348 510h-198q-11 -218 -31 -330q-60 -312 -246 -544q-19 -23 -27 -23q-6 0 -26 20q-35 38 -76 60
q189 197 254 514q37 187 37 586l-4 308q0 16 16 16l303 -4h320v47q0 170 -15 254q73 -3 136 -12q25 -4 25 -17q0 -12 -13 -45q-10 -28 -10 -180v-47h544q31 0 44 6q16 8 20 8q18 0 58 -37q39 -33 39 -53q0 -11 -15 -23q-19 -14 -37 -49q-54 -111 -127 -219q-15 -25 -24 -25
q-4 0 -33 14q-34 19 -76 29q87 114 143 236h-536v-377h342q29 0 45 6q12 4 18 4q18 0 58 -35q41 -41 41 -55t-17 -25q-17 -12 -39 -51q-155 -275 -356 -465q273 -196 711 -295zM1016 899v377h-512v-221q0 -101 -2 -156h514zM1470 786h-651q113 -256 318 -432
q195 178 333 432z" />
    <glyph glyph-name="uni76BF" unicode="&#xe0100;" 
d="M1941 65q0 -16 -16 -16l-262 4h-1269l-263 -4q-16 0 -16 16v91q0 16 16 16l222 -4v982l-4 306q0 16 16 16l288 -4h747l291 4q17 0 17 -16l-4 -306v-982l221 4q16 0 16 -16v-91zM1577 168v1185h-295v-1185h295zM1159 168v1185h-282v-1185h282zM754 168v1185h-274v-1185
h274z" />
    <glyph glyph-name="uni76EE" unicode="&#xe0100;" 
d="M1657 -92q0 -16 -16 -16h-101q-16 0 -16 16v127h-1004v-133q0 -17 -18 -17h-99q-16 0 -16 17l4 727v403l-4 528q0 17 16 17l287 -4h662l289 4q16 0 16 -17l-4 -473v-454zM1524 152v378h-1004v-378h1004zM1524 645v354h-1004v-354h1004zM1524 1114v342h-1004v-342h1004z
" />
    <glyph glyph-name="uni77DB" unicode="&#xe0100;" 
d="M1907 919q0 -20 -21 -30q-22 -10 -51 -45q-179 -212 -352 -343q-21 -18 -31 -18q-9 0 -28 23q-31 28 -78 53q230 158 364 334h-550l6 -549q1 -75 3 -172q1 -56 1 -76q0 -77 -18 -117q-12 -29 -43 -57q-50 -46 -244 -46q-30 0 -70 1q-30 0 -36 6t-13 37q-13 55 -43 96
q121 -12 229 -12q61 0 85 28q22 26 22 85l-4 473q0 145 2 223q-283 -423 -799 -699q-22 -12 -29 -12q-10 0 -30 29q-28 43 -68 70q538 257 846 692h-494l-272 -4q-19 0 -19 16v91q0 16 19 16l272 -4h625q-171 136 -417 266q-10 5 -10 9q0 6 13 20l49 45q13 13 21 13
q5 0 10 -3q144 -75 270 -160q264 141 430 295h-776l-284 -4q-17 0 -17 14v91q0 16 17 16l284 -4h815q32 0 44 6t22 6q20 0 66 -43q49 -47 49 -64q0 -23 -27 -37q-45 -22 -67 -43q-195 -163 -449 -306l88 -66q8 -6 8 -10t-18 -20l-25 -21h555q23 0 39 8q12 6 21 6
q17 0 57 -35q51 -49 51 -68z" />
    <glyph glyph-name="uni77E2" unicode="&#xe0100;" 
d="M1929 26q-42 -38 -66 -85q-13 -33 -26 -33q-7 0 -31 10q-580 251 -782 694q-34 -106 -82 -188q-117 -196 -277 -314q-147 -108 -395 -202l-29 -8q-10 0 -30 33q-32 45 -66 71q287 93 458 224q140 106 230 259q49 88 78 201h-469l-268 -4q-17 0 -17 16v97q0 16 17 16
l268 -4h494q27 156 30 434h-399q-97 -159 -232 -297q-20 -20 -28 -20t-31 22q-30 30 -72 49q280 247 400 613q13 39 20 94q69 -15 123 -35q23 -8 23 -22q0 -13 -16 -29t-31 -53q-45 -115 -91 -203h816l282 4q17 0 17 -16v-95q0 -16 -17 -16l-282 4h-355q-3 -264 -28 -434
h569l270 4q17 0 17 -16v-97q0 -16 -17 -16l-270 4h-539q226 -454 834 -662z" />
    <glyph glyph-name="uni77F3" unicode="&#xe0100;" 
d="M1889 1404q0 -16 -17 -16l-274 4h-682q-82 -312 -231 -546h739l278 4q17 0 17 -16l-4 -259v-241l4 -408q0 -16 -17 -16h-102q-16 0 -16 16v125h-862v-139q0 -17 -17 -17h-102q-16 0 -16 17l4 414v219q0 129 -2 170q-143 -180 -363 -332q-25 -18 -33 -18q-9 0 -26 28
q-26 40 -70 72q521 304 678 927h-324l-274 -4q-17 0 -17 16v95q0 16 17 16l274 -4h1147l274 4q17 0 17 -16v-95zM1584 170v559h-862v-559h862z" />
    <glyph glyph-name="uni793A" unicode="&#xe0101;" 
d="M1902 944q0 -16 -17 -16l-272 4h-514v-572l4 -262q0 -100 -53 -145q-34 -28 -103 -37q-60 -8 -186 -8q-32 0 -38 6t-13 35q-15 58 -43 98q87 -10 182 -10q71 0 96 25q21 20 21 67v803h-524l-271 -4q-16 0 -16 16v99q0 16 16 16l271 -4h1171l272 4q17 0 17 -16v-99z
M1683 1417q0 -16 -16 -16l-289 4h-715l-289 -4q-16 0 -16 16v99q0 16 16 16l289 -4h715l289 4q16 0 16 -16v-99zM649 664q0 -13 -20 -33q-11 -11 -46 -80q-116 -241 -331 -435q-25 -20 -31 -20q-7 0 -33 23q-38 34 -82 53q111 81 213 204q77 93 121 177q55 103 61 180
q69 -19 128 -45q20 -10 20 -24zM1951 203q-45 -31 -78 -72q-20 -27 -28 -27q-6 0 -29 23q-254 247 -395 547q-3 6 -3 10q0 7 25 18l54 23q16 8 22 8q7 0 12 -12q155 -309 420 -518z" />
    <glyph glyph-name="uni79B8" unicode="&#xe0100;" 
d="M1170 879l63 32q9 4 13 4q7 0 14 -10q169 -226 295 -518q3 -7 3 -12q0 -7 -13 -13l-88 -38q-8 -4 -12 -4q-6 0 -11 12q-33 89 -67 164q-349 -70 -683 -109q-69 -7 -94 -21q-21 -14 -35 -14q-15 0 -22 27q-19 54 -33 127q72 0 178 8q125 374 205 723h-510v-1020l4 -307
q0 -19 -18 -19h-97q-18 0 -18 19l4 315v791l-4 320q0 18 18 18l291 -4h355q16 78 22 117q25 150 25 237q69 -13 135 -30q29 -10 29 -25q0 -14 -10 -31q-21 -31 -35 -106q-12 -62 -35 -162h463l291 4q18 0 18 -18l-4 -330v-596l3 -285q0 -25 -1 -43q0 -92 -49 -133
q-49 -43 -268 -41q-29 0 -35 6q-5 5 -11 33q-17 63 -43 96q86 -8 185 -8q57 0 77 19q17 16 17 57v1126h-668q-88 -369 -207 -713q205 19 515 68q-74 146 -158 264q-5 7 -5 12t11 11z" />
    <glyph glyph-name="uni79BE" unicode="&#xe0100;" 
d="M1974 203q-34 -32 -61 -82q-17 -31 -25 -31q-9 0 -31 12q-515 275 -794 726q0 -363 7 -725q1 -63 4 -161q1 -55 1 -65q0 -16 -16 -16h-105q-16 0 -16 16q0 7 3 145q8 405 9 795q-280 -454 -743 -711q-22 -12 -29 -12q-12 0 -29 31q-24 44 -63 74q257 114 487 324
q189 173 314 368h-439l-274 -4q-16 0 -16 18v89q0 16 16 16l274 -4h496v391q-324 -50 -569 -65q-14 -1 -20 -1q-16 0 -23 7q-5 5 -15 27q-21 50 -47 79q334 16 672 66q267 40 459 98q89 24 151 57q68 -39 107 -71q18 -16 18 -31q0 -18 -27 -18q-10 -1 -84 -17
q-276 -73 -495 -110v-412h518l275 4q16 0 16 -16v-89q0 -18 -16 -18l-275 4h-463q167 -238 399 -423q215 -170 449 -265z" />
    <glyph glyph-name="uni7A74" unicode="&#xe0100;" 
d="M1851 919q0 -17 -18 -17h-93q-18 0 -18 17v307h-1396v-307q0 -17 -16 -17h-95q-18 0 -18 17l4 223v72l-4 113q0 16 18 16l283 -4h446v145q0 129 -14 191q66 -3 137 -10q27 -4 27 -19q0 -12 -12 -41q-11 -31 -11 -121v-145h479l283 4q18 0 18 -16l-4 -99v-86zM1935 8
q-47 -27 -82 -75q-18 -25 -26 -25q-9 0 -31 18q-244 202 -388 436q-117 191 -202 461q-1 4 -1 7q0 8 28 20l65 24q13 4 18 4q7 0 11 -14q160 -553 608 -856zM844 811q0 -14 -16 -31q-18 -20 -33 -69q-101 -286 -219 -455q-112 -162 -304 -322q-24 -20 -28 -20q-7 0 -31 27
q-36 39 -82 63q220 151 354 349q107 159 174 372q28 94 31 154q61 -14 127 -41q27 -12 27 -27z" />
    <glyph glyph-name="uni7ACB" unicode="&#xe0100;" 
d="M1931 -6q0 -16 -16 -16l-266 4h-1249l-265 -4q-16 0 -16 16v103q0 16 16 16l265 -4h714q141 332 246 717q33 123 41 213q90 -25 144 -45q20 -8 20 -23q0 -12 -18 -35q-20 -21 -39 -90q-119 -407 -261 -737h402l266 4q16 0 16 -16v-103zM1829 1192q0 -18 -16 -18l-283 4
h-1008l-282 -4q-17 0 -17 18v99q0 16 17 16l282 -4h418v170q0 138 -14 207q86 -3 141 -10q27 -4 27 -19q0 -13 -10 -37q-13 -27 -13 -141v-170h459l283 4q16 0 16 -16v-99zM824 297v-9q0 -12 -23 -18l-72 -20q-17 -5 -24 -5q-11 0 -15 17q-62 365 -196 711q-3 7 -3 9
q0 8 27 17l68 23q13 4 18 4q7 0 11 -10q142 -355 209 -719z" />
    <glyph glyph-name="uni7AF9" unicode="&#xe0100;" 
d="M1948 1161q0 -16 -16 -16l-258 4h-76v-787l2 -280q0 -68 -11 -99q-10 -31 -38 -55q-31 -30 -96 -38q-50 -7 -168 -7q-32 0 -39 6q-5 6 -13 35q-16 56 -38 94q88 -10 163 -10q66 0 88 22q23 22 23 79v1040h-285q-99 -177 -190 -290q-17 -23 -27 -23q-7 0 -31 20
q-27 22 -73 41q224 254 340 600q32 104 35 177q67 -13 126 -33q27 -8 27 -23q0 -14 -14 -28q-17 -19 -41 -99q-39 -114 -94 -227h430l258 4q16 0 16 -16v-91zM985 1162q0 -17 -16 -17l-211 4h-127v-962l4 -301q0 -17 -16 -17h-103q-16 0 -16 17l4 301v962h-94
q-89 -146 -207 -287q-19 -22 -27 -22t-30 22q-29 29 -70 48q129 132 239 319q82 139 130 266q36 102 41 175q61 -13 122 -33q29 -11 29 -25q0 -12 -16 -28t-47 -97q-45 -121 -101 -223h285l211 4q16 0 16 -16v-90z" />
    <glyph glyph-name="uni7C73" unicode="&#xe0100;" 
d="M1974 169q-29 -29 -59 -86q-19 -31 -27 -31t-31 14q-517 271 -792 701q0 -349 6 -688q1 -54 3 -146q1 -49 1 -59q0 -16 -16 -16h-107q-16 0 -16 16q0 8 2 133q7 370 8 750q-275 -430 -743 -690q-25 -12 -31 -12q-11 0 -29 29q-32 52 -61 75q257 117 485 319
q196 173 322 365h-455l-272 -4q-17 0 -17 16v89q0 16 17 16l272 -4h508v492q0 161 -14 239q79 -3 139 -12q27 -3 27 -17q0 -11 -5 -25q-6 -18 -7 -22q-13 -45 -13 -161v-494h547l270 4q17 0 17 -16v-89q0 -16 -17 -16l-270 4h-498q311 -436 856 -674zM1700 1464
q0 -13 -20 -29q-15 -9 -37 -51q-90 -173 -199 -307q-19 -25 -27 -25q-6 0 -30 19q-38 28 -72 35q150 191 215 340q23 51 31 96q80 -30 119 -53q20 -14 20 -25zM694 1159q3 -6 3 -10q0 -7 -19 -19l-59 -39q-19 -10 -24 -10q-7 0 -13 12q-84 181 -230 361q-5 6 -5 9q0 4 24 19
l55 35q9 7 15 7q5 0 14 -9q143 -166 239 -356z" />
    <glyph glyph-name="uni7CF8" unicode="&#xe0100;" 
d="M1892 573q5 -8 5 -12q0 -9 -17 -21l-57 -35q-21 -13 -26 -13q-6 0 -11 10q-79 119 -121 175q-189 -17 -594 -45v-432l4 -317q0 -17 -16 -17h-105q-16 0 -16 17l4 317v422q-259 -17 -623 -33q-70 -2 -94 -14q-12 -6 -24 -6q-14 0 -21 22q-14 54 -26 129q73 -5 152 -5
q40 0 73 1q91 2 299 11l139 135q-217 211 -489 407q-8 5 -8 10q0 6 16 23l43 45q10 12 17 12q5 0 11 -6q107 -76 174 -129q150 171 267 357q34 58 61 129q63 -27 115 -62q20 -14 20 -26q0 -13 -20 -27q-26 -18 -66 -76q-145 -207 -286 -366q136 -113 231 -205
q176 184 309 356q87 116 121 197q78 -39 121 -68q18 -11 18 -28q0 -15 -29 -31q-15 -11 -86 -94q-272 -328 -507 -545q432 21 731 45q-83 99 -180 190q-9 8 -9 13q0 7 19 20l45 31q17 10 23 10t16 -10q179 -162 397 -461zM719 406q0 -14 -27 -33q-11 -9 -45 -51
q-161 -220 -352 -351q-23 -16 -30 -16q-10 0 -31 25q-29 33 -72 55q112 65 227 175q91 87 138 159q41 58 67 120q51 -23 104 -55q21 -13 21 -28zM1850 61q-46 -28 -72 -59q-21 -25 -29 -25t-32 18q-237 193 -400 425q-5 9 -5 13q0 7 18 18l49 30q15 9 22 9t15 -9
q180 -241 434 -420z" />
    <glyph glyph-name="uni7F36" unicode="&#xe0100;" 
d="M1920 772q0 -16 -16 -16l-268 4h-549v-618h516v235q0 152 -12 211q102 -8 139 -14q23 -4 23 -19q0 -10 -10 -30q-13 -25 -13 -152v-288l4 -195q0 -17 -14 -17h-101q-16 0 -16 17v135h-1149v-125q0 -16 -16 -16h-97q-16 0 -16 16l4 185v286q0 149 -12 215q62 -3 135 -10
q22 -3 22 -19q0 -14 -10 -38t-10 -144v-233h504v618h-529l-268 -4q-16 0 -16 16v97q0 16 16 16l268 -4h529v399h-412q-83 -136 -203 -261q-19 -23 -28 -23q-10 0 -31 20q-32 30 -78 47q239 225 359 516q32 77 41 133q63 -17 127 -41q20 -8 20 -24q0 -12 -20 -29
q-14 -9 -39 -59q-53 -114 -78 -160h854l287 4q16 0 16 -18v-89q0 -20 -16 -20l-287 4h-383v-399h549l268 4q16 0 16 -16v-97z" />
    <glyph glyph-name="uni7F51" unicode="&#xe0100;" 
d="M1835 80q-3 -96 -49 -135q-52 -39 -236 -39q-30 0 -36 6q-6 5 -13 33q-9 50 -41 92q80 -8 172 -8q74 0 74 80v1337h-1362v-1178l2 -364q0 -17 -16 -17h-99q-16 0 -16 17l4 393v856l-4 397q0 17 16 17l285 -4h1018l285 4q16 0 16 -17l-4 -399v-743zM1597 534q7 -7 7 -12
q0 -7 -17 -25l-41 -49q-15 -16 -20 -16t-13 10q-79 119 -165 227q-98 -293 -320 -547q-19 -22 -27 -22q-4 0 -28 20q-42 35 -72 48q251 245 361 602q-110 121 -232 231q-9 8 -9 13t11 18l35 47q12 15 18 15q4 0 13 -7q89 -74 198 -186q23 102 41 245q13 123 13 181
q0 29 -2 55q60 -11 120 -27q27 -7 27 -20q0 -10 -18 -35q-12 -16 -25 -129q-22 -203 -66 -371q96 -108 211 -266zM1010 591q5 -8 5 -13q0 -6 -12 -21l-43 -54q-13 -15 -19 -15q-4 0 -11 9q-65 103 -131 187q-99 -260 -301 -507q-20 -22 -27 -22q-8 0 -29 21q-30 30 -71 49
q232 232 346 557q-110 121 -236 231q-9 8 -9 13q0 6 11 18l35 47q10 13 16 13q4 0 13 -7q99 -82 207 -192q29 116 46 256q12 116 12 158q0 33 -3 63l121 -25q24 -5 24 -20q0 -16 -10 -29q-15 -20 -29 -137q-30 -212 -75 -362q99 -117 170 -218z" />
    <glyph glyph-name="uni7F8A" unicode="&#xe0101;" 
d="M1905 407q0 -16 -16 -16l-273 4h-538v-211l4 -317q0 -15 -16 -15h-107q-16 0 -16 15l4 317v211h-512l-271 -4q-16 0 -16 16v91q0 18 16 18l271 -4h512v290h-291l-291 -4q-16 0 -16 16v89q0 16 16 16l291 -4h291v277h-393l-285 -4q-19 0 -19 16v91q0 16 19 16l285 -4h587
q122 162 195 301q25 52 39 96q78 -21 120 -43q23 -11 23 -24q0 -15 -21 -27q-18 -11 -41 -49q-83 -132 -178 -254h230l284 4q17 0 17 -16v-91q0 -16 -17 -16l-284 4h-430v-277h329l291 4q17 0 17 -16v-89q0 -16 -17 -16l-291 4h-329v-290h538l273 4q16 0 16 -18v-91z
M826 1407q3 -7 3 -10q0 -7 -26 -19l-55 -24q-19 -10 -26 -10q-8 0 -13 12q-77 158 -170 274q-5 7 -5 11q0 8 21 18l58 24q15 8 23 8q7 0 13 -8q95 -113 177 -276z" />
    <glyph glyph-name="uni7FBD" unicode="&#xe0101;" 
d="M926 98q0 -110 -53 -151q-34 -25 -94 -33q-57 -8 -183 -8q-32 0 -39 6t-14 35q-14 54 -37 92q85 -10 170 -10q75 0 100 23q23 21 23 79v1329h-389l-225 -4q-17 0 -17 16v91q0 16 17 16l225 -4h272l228 4q16 0 16 -17l-4 -278v-909zM1823 1562l-4 -278v-909l2 -277
q0 -112 -53 -151q-35 -25 -96 -33q-58 -8 -185 -8q-31 0 -38 6q-6 6 -13 35q-12 52 -37 92q88 -8 174 -8q76 0 100 22q23 21 23 78v1329h-395l-223 -4q-17 0 -17 16v91q0 16 17 16l223 -4h276l230 4q16 0 16 -17zM705 674q5 -17 5 -26q0 -15 -29 -38q-160 -129 -396 -272
q-44 -26 -65 -52q-15 -14 -25 -14q-14 0 -25 16q-23 39 -59 115q74 22 160 70q241 137 418 293q3 -43 16 -92zM1606 727q7 -24 7 -30q0 -14 -27 -35q-167 -134 -400 -275q-39 -22 -67 -51q-15 -14 -25 -14q-12 0 -20 14q-31 49 -62 117q69 18 158 67q219 125 422 293
q3 -45 14 -86zM551 920q3 -9 3 -12q0 -8 -21 -23l-57 -39q-14 -9 -20 -9q-8 0 -13 13q-82 194 -197 334q-7 8 -7 13q0 6 19 17l56 35q14 9 18 9q5 0 12 -9q124 -148 207 -329zM1432 920q3 -8 3 -12q0 -8 -21 -23l-56 -39q-13 -9 -20 -9q-8 0 -13 13q-85 204 -186 328
q-7 8 -7 12q0 7 19 18l54 35q13 9 18 9t12 -9q112 -137 197 -323z" />
    <glyph glyph-name="uni8001" unicode="&#xe0100;" 
d="M1919 888q0 -16 -16 -16l-266 4h-439q-177 -136 -419 -266v-219q316 84 587 221q68 35 113 80q60 -45 88 -76q17 -16 17 -29q0 -19 -27 -22q-23 -4 -94 -37q-279 -141 -684 -243v-142q0 -74 63 -100q52 -22 322 -22q307 0 372 49q61 42 74 241q28 -23 90 -45
q32 -11 32 -27q0 -6 -3 -26q-27 -182 -103 -239q-82 -68 -471 -68q-320 0 -407 35q-92 34 -92 159v447q-177 -88 -430 -185q-24 -9 -32 -9q-10 0 -30 30q-16 27 -59 65q534 173 911 428h-600l-266 -4q-16 0 -16 16v85q0 16 16 16l266 -4h465v297h-252l-272 -4q-19 0 -19 16
v85q0 16 19 16l272 -4h252v74q0 153 -14 229q57 -2 137 -10q25 -4 25 -19q0 -9 -10 -36q-15 -40 -15 -164v-74h121l272 4q17 0 17 -16v-85q0 -16 -17 -16l-272 4h-121v-297h149q234 185 420 426q60 77 86 138q61 -27 117 -62q19 -12 19 -28t-19 -23q-34 -16 -92 -86
q-169 -203 -363 -365h316l266 4q16 0 16 -16v-85z" />
    <glyph glyph-name="uni800C" unicode="&#xe0100;" 
d="M1925 1462q0 -16 -17 -16l-268 4h-571q-40 -172 -117 -346h551l288 4q17 0 17 -17l-4 -280v-402l2 -327q0 -94 -49 -137q-49 -39 -229 -39q-29 0 -36 7q-7 6 -16 34q-17 54 -36 88q72 -6 145 -6q54 0 73 17q17 16 17 54v893h-364v-713l4 -305q0 -16 -16 -16h-101
q-16 0 -16 16l4 305v713h-336v-719l4 -305q0 -16 -17 -16h-100q-16 0 -16 16l4 305v719h-348v-774l4 -313q0 -17 -16 -17h-103q-16 0 -16 17l4 315v600l-4 270q0 17 16 17l289 -4h264q83 204 115 346h-516l-269 -4q-16 0 -16 16v94q0 17 16 17l269 -4h1226l268 4
q17 0 17 -17v-94z" />
    <glyph glyph-name="uni8012" unicode="&#xe0100;" 
d="M1999 74q-37 -31 -63 -80q-19 -31 -29 -31q-7 0 -31 10q-527 238 -808 594q0 -215 6 -462q6 -184 6 -232q0 -16 -17 -16h-104q-16 0 -16 16q0 32 7 278q6 214 7 418q-285 -366 -776 -598q-24 -10 -29 -10q-14 0 -29 29q-24 42 -59 71q484 198 805 553h-412l-274 -4
q-17 0 -17 16v85q0 16 17 16l274 -4h492v233h-338l-289 -4q-16 0 -16 16v87q0 16 16 16l289 -4h338v256q-292 -30 -566 -43q-9 -1 -17 -1q-18 0 -25 7q-5 5 -13 24q-18 49 -49 80q347 12 670 47v25q0 153 -17 239q83 -3 140 -12q29 -3 29 -18q0 -10 -7 -23q-6 -14 -8 -20
q-10 -42 -10 -164v-12q197 27 397 75q89 22 131 45q49 -34 94 -79q15 -15 15 -29q0 -21 -25 -21q-38 0 -82 -10q-294 -63 -530 -94v-272h370l289 4q17 0 17 -16v-87q0 -16 -17 -16l-289 4h-370v-233h526l274 4q17 0 17 -16v-85q0 -16 -17 -16l-274 4h-457q325 -340 854 -540
z" />
    <glyph glyph-name="uni8033" unicode="&#xe0100;" 
d="M1937 447q-14 -42 -18 -72q-5 -30 -12.5 -37.5t-37.5 -11.5q-106 -17 -319 -45v-33l4 -371q0 -16 -14 -16h-107q-16 0 -16 16l4 369v16q-1 0 -438 -49q-329 -36 -705 -67q-61 -4 -90 -19q-31 -12 -37 -12q-13 0 -21 27q-19 77 -28 128h47q79 0 129 5q139 7 227 14v1140
h-57l-273 -4q-16 0 -16 16v95q0 16 16 16l273 -4h1176l272 4q18 0 18 -16v-95q0 -16 -18 -16l-272 4h-74v-1036zM1421 379v254h-789v-334q86 6 207 19q286 24 582 61zM1421 750v282h-789v-282h789zM1421 1149v280h-789v-280h789z" />
    <glyph glyph-name="uni807F" unicode="&#xe0100;" 
d="M1926 1087q0 -15 -16 -15q-4 0 -29 1q-89 2 -198 3v-88l4 -203q0 -16 -16 -16l-314 4h-290v-187h405l289 4q16 0 16 -16v-80q0 -16 -16 -16l-289 4h-405v-190h546l272 4q17 0 17 -16v-82q0 -16 -17 -16l-272 4h-546l4 -313q0 -17 -16 -17h-101q-16 0 -16 17v39
q2 123 4 274h-508l-270 -4q-17 0 -17 16v82q0 16 17 16l270 -4h508v190h-346l-289 -4q-16 0 -16 16v80q0 16 16 16l289 -4h346v187h-313l-287 -4q-15 0 -15 16v80q0 16 15 16l287 -4h313v199h-520l-269 -4q-16 0 -16 15v83q0 16 16 16l269 -4h520v191h-303l-289 -4
q-16 0 -16 16v80q0 16 16 16l289 -4h303q0 142 -14 225q75 -3 136 -12q23 -3 23 -16t-8 -35q-12 -31 -12 -162h290l314 4q16 0 16 -16l-4 -201v-82l227 4q16 0 16 -16v-83zM1560 877v199h-493v-199h493zM1560 1182v191h-493v-191h493z" />
    <glyph glyph-name="uni8089" unicode="&#xe0100;" 
d="M1832 59q-3 -97 -51 -135q-48 -39 -262 -39q-32 0 -39 6q-5 5 -12 33q-16 61 -39 96q77 -10 196 -10q80 0 80 82v1159h-618q92 -167 214 -270q131 -111 318 -174q-34 -31 -55 -78q-14 -33 -25 -33q-7 0 -30 10q-320 143 -490 461q-113 -286 -477 -471q-24 -12 -32 -12
q-9 0 -27 27q-25 41 -64 69q411 160 508 471h-569v-1052l4 -316q0 -16 -14 -16h-101q-16 0 -16 16l4 330v803l-4 332q0 16 16 16l285 -4h422q8 64 10 104q3 61 3 107q0 75 -7 123q83 -7 118 -15q33 -6 33 -20q0 -9 -8 -29q-12 -26 -16 -100q-6 -88 -19 -170h463l285 4
q16 0 16 -16l-4 -343v-618zM1597 276q-37 -30 -59 -77q-14 -33 -25 -33q-7 0 -29 12q-306 146 -458 412q-109 -270 -469 -435q-25 -12 -33 -12q-11 0 -29 27q-24 38 -69 70q439 151 513 462q25 113 25 186v17q63 -6 112 -18q29 -5 29 -23q0 -13 -10 -26q-11 -16 -28 -107
q83 -175 217 -283q118 -95 313 -172z" />
    <glyph glyph-name="uni81E3" unicode="&#xe0100;" 
d="M1889 2q0 -16 -16 -16l-289 4h-1172v-123q0 -16 -18 -16h-95q-16 0 -16 16l4 407v877l-4 407q0 17 16 17l289 -4h965l283 4q16 0 16 -16v-93q0 -16 -16 -16l-283 4h-451v-360h287l312 4q16 0 16 -17l-4 -184v-203l4 -183q0 -16 -16 -16l-312 4h-283v-392h478l289 4
q16 0 16 -16v-93zM1588 612v369h-1176v-369h1176zM983 107v392h-571v-392h571zM979 1094v360h-567v-360h567z" />
    <glyph glyph-name="uni81EA" unicode="&#xe0100;" 
d="M1661 -111q0 -14 -16 -14h-97q-16 0 -16 14v115h-1014v-117q0 -14 -16 -14h-97q-16 0 -16 14l4 649v379l-4 490q0 16 16 16l287 -4h121q43 93 82 217q11 42 14 90q60 -8 131 -24q25 -7 25 -23q0 -10 -12 -22q-22 -26 -31 -52q-45 -120 -78 -186h414l287 4q16 0 16 -16
l-4 -443v-424zM1532 121v341h-1014v-341h1014zM1532 575v307h-1014v-307h1014zM1532 995v305h-1014v-305h1014z" />
    <glyph glyph-name="uni81F3" unicode="&#xe0100;" 
d="M1896 1466q0 -14 -16 -14l-272 2h-684q-100 -232 -217 -442q376 20 757 63q-82 88 -202 188q-9 7 -9 11q0 8 19 20l45 31q12 8 19 8q5 0 16 -8q226 -179 430 -426q6 -9 6 -14q0 -8 -17 -19l-55 -37q-21 -14 -28 -14q-6 0 -13 9q-86 111 -121 153q-551 -74 -1153 -106
q-73 -5 -92 -15q-20 -10 -35 -10q-17 0 -24 25q-14 41 -31 128q58 -1 112 -1t101 1l133 4q115 185 223 451h-346l-272 -2q-16 0 -16 14v88q0 19 16 19l272 -4h1166l272 4q16 0 16 -19v-88zM1921 -19q0 -16 -17 -16l-268 4h-1222l-269 -4q-16 0 -16 16v91q0 16 16 16l269 -4
h532v352h-324l-288 -4q-17 0 -17 16v91q0 16 17 16l288 -4h324v12q0 177 -14 260q81 -3 139 -12q22 -3 22 -18q0 -4 -8 -37q-12 -45 -12 -182v-23h342l291 4q14 0 14 -16v-91q0 -16 -14 -16l-291 4h-342v-352h563l268 4q17 0 17 -16v-91z" />
    <glyph glyph-name="uni81FC" unicode="&#xe0100;" 
d="M1790 -76q0 -17 -18 -17h-95q-16 0 -16 17v139h-1258v-139q0 -17 -16 -17h-97q-16 0 -16 17l4 346v903q0 159 -14 238q67 -13 121 -37q227 83 411 193q64 39 93 78q63 -45 96 -78q16 -17 16 -27q0 -21 -27 -27q-20 -4 -106 -49q-189 -105 -465 -204v-439h262l240 4
q16 0 16 -16v-93q0 -16 -16 -16l-240 4h-262v-524h1258v524h-291l-246 -4q-16 0 -16 16v93q0 16 16 16l246 -4h291v502h-291l-254 -4q-16 0 -16 16v92q0 17 16 17l254 -4h189l213 4q18 0 18 -16l-4 -345v-817z" />
    <glyph glyph-name="uni820C" unicode="&#xe0100;" 
d="M1929 962q0 -16 -16 -16l-264 4h-568v-321h246l283 4q16 0 16 -16l-4 -197v-182l4 -346q0 -17 -16 -17h-101q-16 0 -16 17v92h-928v-104q0 -17 -16 -17h-99q-16 0 -16 17l4 350v163l-4 224q0 16 16 16l283 -4h217v321h-543l-264 -4q-16 0 -16 16v95q0 16 16 16l264 -4
h543v346q-219 -31 -547 -59q-11 -1 -15 -1q-17 0 -24 9q-6 6 -16 30q-17 43 -49 78q642 31 1091 158q85 24 132 53q61 -41 100 -80q21 -20 21 -33q0 -19 -51 -24q-20 -2 -119 -25q-211 -56 -392 -86v-366h568l264 4q16 0 16 -16v-95zM1493 99v415h-928v-415h928z" />
    <glyph glyph-name="uni821B" unicode="&#xe0100;" 
d="M1962 418q0 -16 -16 -16l-268 4h-23v-180l4 -352q0 -17 -16 -17h-99q-16 0 -16 17l4 350v182h-385l-33 -141q-4 -17 -18 -17h-10l-76 6q-26 2 -26 12q0 3 2 9q74 282 118 565q9 57 9 101q0 14 -1 28q74 -10 119 -21q33 -8 33 -22q0 -15 -14 -33q-16 -22 -27 -90
q-7 -37 -28 -151q-15 -84 -26 -137h363v603h-205l-244 -4q-16 0 -16 16v87q0 16 16 16l244 -4h205v164q0 183 -14 276q77 -3 135 -12q25 -4 25 -16q0 -2 -10 -37q-13 -49 -13 -207v-168h6l244 4q16 0 16 -16v-87q0 -16 -16 -16l-244 4h-6v-603h23l268 4q16 0 16 -16v-85z
M999 1269q0 -17 -12 -29q-18 -17 -25 -49q-88 -458 -282 -767q-164 -260 -449 -487q-21 -18 -28 -18q-9 0 -27 27q-31 37 -68 61q329 235 508 545q-113 140 -219 229q-11 10 -11 14q0 5 11 17l45 53q10 12 15 12q4 0 14 -7q83 -68 205 -205q120 246 172 567h-326
q-115 -294 -321 -543q-20 -22 -29 -22q-8 0 -23 22q-26 42 -61 64q304 327 408 785q20 85 20 137q75 -14 123 -31q24 -10 24 -24q0 -15 -16 -31q-13 -13 -35 -86q-32 -109 -51 -162h268q31 0 51 10q13 6 27 6q18 0 51 -33q41 -41 41 -55z" />
    <glyph glyph-name="uni821F" unicode="&#xe0100;" 
d="M1169 981q7 -8 7 -13q0 -8 -17 -22l-56 -41q-17 -12 -23 -12t-14 10q-100 146 -213 244q-7 8 -7 12q0 6 18 21l45 37q13 9 20 9q6 0 15 -5q134 -113 225 -240zM1931 685q0 -16 -16 -16l-264 4h-82v-340l2 -272q0 -98 -56 -141q-27 -22 -91 -28q-47 -5 -167 -7
q-33 0 -40 6q-5 6 -11 35q-11 44 -35 88q106 -9 161 -9q17 0 30 1q50 1 67 20q15 16 15 56v591h-375v-350l4 -202q0 -19 -17 -19h-94q-18 0 -18 19l4 202v350h-330q-21 -299 -102 -486q-70 -162 -211 -306q-24 -20 -29 -20q-6 0 -30 20q-33 33 -84 53q175 149 249 328
q65 159 82 411h-79l-265 -4q-16 0 -16 16v89q0 16 16 16l265 -4h86q4 115 4 187v202l-4 251q0 18 16 18l272 -4h64q51 89 83 164q27 59 35 117q81 -17 127 -31q21 -7 21 -21q0 -11 -19 -26q-17 -14 -28 -39q-39 -83 -88 -164h301l272 4q17 0 17 -18l-4 -251v-389h82l264 4
q16 0 16 -16v-89zM1444 786v541h-815v-359q0 -67 -4 -182h819z" />
    <glyph glyph-name="uni826E" unicode="&#xe0100;" 
d="M1966 -8q-39 -43 -60 -80q-18 -34 -31 -34q-6 0 -28 6q-728 206 -961 839h-317v-649q261 66 504 143q-8 -30 -8 -65q0 -38 -6 -47q-6 -8 -33 -17q-365 -119 -725 -198q-65 -15 -82 -29q-14 -10 -23 -10q-13 0 -22 18q-16 41 -39 125q131 12 221 33l86 18v1135l-4 350
q0 16 16 16l299 -4h578l291 4q18 0 18 -16l-4 -222v-352l4 -221q0 -16 -18 -16l-291 4h-320q74 -186 211 -336q235 126 352 215q35 25 68 68q55 -37 99 -74q16 -16 16 -27q0 -14 -25 -20q-26 -8 -71 -35q-189 -117 -359 -203q254 -224 664 -319zM1511 834v249h-942v-249h942
zM1511 1192v239h-942v-239h942z" />
    <glyph glyph-name="uni8272" unicode="&#xe0100;" 
d="M1892 283q-10 -128 -38 -194q-25 -60 -76 -97q-103 -80 -671 -80q-470 0 -593 43q-73 23 -104 83t-31 171v723l-2 135q-81 -65 -178 -129q-26 -14 -29 -14q-8 0 -25 29q-26 42 -55 65q367 201 581 536q48 80 62 139q88 -22 122 -36q23 -10 23 -25q0 -14 -21 -27
q-18 -12 -44 -55l-33 -47h442q35 0 45 6q6 4 19 4q15 0 55 -35q41 -35 41 -49q0 -17 -27 -30q-18 -8 -51 -51q-113 -144 -201 -234h287l291 4q17 0 17 -16l-4 -170v-201l4 -170q0 -16 -17 -16l-291 4h-888v-301q0 -102 22 -139t82 -51q93 -25 487 -25q508 0 595 61
q47 35 62 108q9 44 17 179q37 -27 90 -45q37 -12 37 -31q0 -7 -2 -22zM1571 655v355h-490v-355h490zM960 655v355h-458v-355h458zM1193 1401h-487q-122 -160 -270 -285q41 -2 246 -2h278q120 126 233 287z" />
    <glyph glyph-name="uni8278" unicode="&#xe0100;" 
d="M956 1301q0 -15 -8 -29q-12 -24 -12 -100v-494l4 -282q0 -16 -17 -16h-84q-16 0 -16 16v88h-219q-6 -55 -18 -102q-64 -270 -320 -474q-23 -16 -26 -16q-7 0 -29 23q-29 35 -80 55q277 161 342 446l14 68h-167v-80q0 -16 -15 -16h-88q-16 0 -16 16l4 276v494
q0 96 -15 155q84 -3 129 -12q23 -3 23 -14q0 -8 -12 -39q-10 -24 -10 -92v-584h181q13 128 13 365v397q0 197 -17 317q72 -3 129 -12q25 -3 25 -16q0 -6 -4 -20q-5 -17 -6 -23q-10 -45 -10 -250v-393q0 -235 -13 -365h205v584q0 98 -15 155q88 -3 127 -10q21 -3 21 -16z
M1886 1301q0 -14 -10 -31q-10 -18 -10 -98v-492l4 -282q0 -16 -19 -16h-82q-18 0 -18 16v86h-211v-236l4 -344q0 -14 -14 -14h-93q-16 0 -16 14l4 342v238h-204v-88q0 -16 -17 -16h-84q-16 0 -16 16l4 280v498q0 96 -15 155q60 -3 125 -12q25 -3 25 -14q0 -2 -12 -39
q-10 -28 -10 -92v-584h204v799q0 193 -17 282q72 -2 130 -12q25 -3 25 -16q0 -7 -4 -18q-5 -13 -7 -19q-12 -49 -12 -213v-803h211v584q0 96 -13 155q68 -3 125 -10q23 -4 23 -16z" />
    <glyph glyph-name="uni864D" unicode="&#xe0100;" 
d="M449 1091v-158q0 -305 -39 -510q-49 -282 -215 -485q-19 -23 -27 -23q-4 0 -26 23q-33 39 -72 61q173 185 223 473q33 169 33 484l-4 234q0 16 18 16l308 -4h260v293q0 127 -15 187q71 -3 131 -13q27 -3 27 -16q0 -8 -12 -37q-11 -23 -11 -121v-6h414l232 4q16 0 16 -16
v-82q0 -16 -16 -16l-232 4h-414v-181h701q23 0 35 6t20 6q19 0 60 -35q39 -39 39 -58q0 -13 -15 -24q-19 -13 -39 -37q-59 -71 -147 -148q-25 -18 -35 -18t-29 12q-37 23 -73 33q97 72 165 152h-1261zM1003 647v-147q0 -59 26 -86q18 -18 63 -31q59 -14 227 -14q131 0 187 8
q64 10 98 35q59 48 69 215q44 -27 92 -45q33 -15 33 -32q0 -6 -2 -20q-25 -159 -108 -217q-53 -36 -139 -48q-77 -11 -228 -11q-211 0 -311 27q-127 41 -127 182v168l-74 -10q-117 -18 -207 -33q-58 -10 -61 -10q-5 -1 -8 -1q-9 0 -11 15l-14 80v7q0 7 15 9q1 0 24 3
q99 12 260 36l76 10v60q0 155 -15 223q63 -3 133 -14q27 -4 27 -21q0 -8 -12 -37q-13 -31 -13 -143v-49l426 57q216 31 287 45q5 1 7 1q7 0 10 -15l12 -80q1 -5 1 -7q0 -9 -15 -12q-2 0 -36 -4q-101 -13 -251 -34z" />
    <glyph glyph-name="uni866B" unicode="&#xe0100;" 
d="M1898 -29q4 -7 4 -12q0 -7 -20 -21l-58 -32q-18 -11 -26 -11q-7 0 -13 9q-76 134 -126 206q-625 -94 -1253 -137q-153 -11 -174 -23q-17 -8 -27 -8q-13 0 -22 29q-17 50 -31 127q74 -5 133 -5q43 0 103 3q189 8 563 41v467h-479v-98q0 -17 -17 -17h-96q-16 0 -16 17
l4 315v219l-4 212q0 16 16 16l299 -4h293v158q0 181 -15 262q72 -3 139 -10q22 -4 22 -19q0 -8 -7 -37q-12 -33 -12 -192v-162h312l301 4q15 0 15 -16l-4 -187v-219l4 -308q0 -16 -15 -16h-98q-16 0 -16 16v66h-499v-455q310 31 511 60q-77 102 -164 194q-6 7 -6 12
q0 6 18 17l54 31q14 8 19 8t11 -6q199 -210 377 -494zM1577 715v438h-499v-438h499zM951 715v438h-479v-438h479z" />
    <glyph glyph-name="uni8840" unicode="&#xe0100;" 
d="M1938 12q0 -16 -16 -16l-263 4h-1269l-263 -4q-16 0 -16 16v91q0 16 16 16l197 -4v868l-4 293q0 16 16 16l291 -4h162q65 116 119 260q29 75 35 137q84 -13 133 -28q18 -6 18 -23q0 -16 -14 -31q-19 -19 -33 -53q-59 -141 -125 -262h498l291 4q16 0 16 -16l-4 -293v-868
l199 4q16 0 16 -16v-91zM1596 115v1060h-305v-1060h305zM1168 115v1060h-299v-1060h299zM746 115v1060h-295v-1060h295z" />
    <glyph glyph-name="uni884C" unicode="&#xe0100;" 
d="M1955 948q0 -16 -17 -16l-278 4h-66v-473l4 -377q3 -118 -55 -164q-50 -39 -285 -39q-32 0 -38 7q-6 5 -13 36q-19 61 -43 92q91 -8 196 -8q70 0 90 17q19 15 19 61v848h-371l-280 -4q-17 0 -17 16v91q0 16 17 16l280 -4h562l278 4q17 0 17 -16v-91zM737 1147
q0 -12 -14 -23q-27 -18 -45 -49q-66 -102 -115 -166v-772l4 -264q0 -16 -16 -16h-99q-16 0 -16 16l4 264v367q0 110 4 266q-106 -115 -221 -211q-22 -18 -29 -18q-8 0 -20 25q-22 42 -53 71q290 226 448 498q30 50 43 98q54 -24 107 -59q18 -14 18 -27zM1847 1449
q0 -16 -16 -16l-254 4h-385l-252 -4q-16 0 -16 16v91q0 16 16 16l252 -4h385l254 4q16 0 16 -16v-91zM727 1608q0 -13 -25 -27q-16 -11 -49 -53q-169 -215 -399 -381q-17 -14 -29 -14q-11 0 -28 28q-26 38 -60 64q259 167 414 379q28 38 45 90q61 -26 113 -62q18 -12 18 -24
z" />
    <glyph glyph-name="uni8863" unicode="&#xe0100;" 
d="M1962 61q-31 -28 -62 -82q-14 -29 -26 -29q-7 0 -29 12q-672 376 -838 1248h-8q-128 -216 -268 -367v-686q250 70 498 162q-6 -22 -6 -78v-20q0 -17 -8 -24q-6 -4 -29 -13q-326 -122 -728 -230q-53 -13 -77 -33q-19 -14 -27 -14q-15 0 -22 18q-22 54 -43 128
q109 15 215 43q59 14 102 26v601q-178 -153 -399 -267q-22 -12 -31 -12q-8 0 -31 29q-22 39 -59 69q526 234 776 668h-422l-272 -4q-17 0 -17 16v93q0 16 17 16l272 -4h502v115q0 149 -14 209q63 -3 138 -11q25 -3 25 -18q0 -8 -12 -37q-10 -26 -10 -143v-115h549l272 4
q17 0 17 -16v-93q0 -16 -17 -16l-272 4h-490q56 -292 170 -514q211 171 305 287q34 39 52 77q64 -40 100 -73q16 -12 16 -25q0 -14 -21 -24q-23 -13 -63 -50q-183 -174 -333 -288q212 -346 608 -539z" />
    <glyph glyph-name="uni897E" unicode="&#xe0100;" 
d="M1927 1431q0 -16 -16 -16l-264 4h-322v-360h158l289 4q18 0 18 -16l-4 -304v-365l4 -374q0 -16 -18 -16h-99q-16 0 -16 16l4 373v569h-336v-386l4 -272q0 -16 -16 -16h-93q-16 0 -16 16v111h-364v-123q0 -16 -16 -16h-93q-16 0 -16 16l4 274v396h-326v-571l4 -373
q0 -16 -16 -16h-101q-16 0 -16 16l4 375v337l-4 333q0 16 16 16l291 -4h148v360h-314l-264 -4q-16 0 -16 16v91q0 16 16 16l264 -4h1242l264 4q16 0 16 -16v-91zM1204 505v441h-364v-441h364zM1204 1059v360h-364v-360h364z" />
    <glyph glyph-name="uni898B" unicode="&#xe0100;" 
d="M1904 174q-11 -102 -34 -148q-18 -39 -58 -67q-70 -55 -309 -55q-198 0 -277 20q-90 29 -90 129v430h-244q-31 -293 -210 -452q-157 -140 -420 -168q-15 -2 -23 -2q-21 0 -39 34q-27 51 -63 76q584 25 624 512h-24l-279 -4q-16 0 -16 16l4 253v583l-4 254q0 16 16 16
l281 -4h569l281 4q16 0 16 -16l-4 -254v-583l4 -253q0 -16 -16 -16l-281 4h-49v-373q0 -67 55 -79q41 -10 195 -10q175 0 217 33q34 23 48 82q10 47 13 140q33 -26 85 -49q34 -14 34 -34q0 -5 -2 -19zM1478 594v236h-909v-236h909zM1478 1264v222h-909v-222h909zM1478 936
v222h-909v-222h909z" />
    <glyph glyph-name="uni89D2" unicode="&#xe0101;" 
d="M1714 1166l-4 -219v-593l2 -278q0 -94 -57 -137q-51 -43 -297 -43q-31 0 -37 6q-5 6 -12 35q-13 51 -39 96q127 -10 211 -10q65 0 88 22q20 21 20 72v272h-1079q-57 -282 -256 -494q-20 -20 -26 -20t-31 19q-47 36 -84 49q180 167 247 362q62 182 62 476v166l-2 170
q-90 -71 -192 -136q-22 -14 -27 -14q-9 0 -25 31q-22 42 -53 70q343 178 551 515q39 66 57 131q76 -20 118 -35q25 -10 25 -27q0 -12 -20 -26q-22 -15 -47 -60l-33 -48h422q29 0 41 6q13 6 21 6q17 0 57 -34q39 -34 39 -51q0 -15 -25 -27q-26 -15 -53 -51
q-88 -129 -135 -189h268l289 4q16 0 16 -16zM1589 493v245h-481v-245h481zM1163 1416h-460q-106 -143 -209 -236q43 -2 229 -2h280q79 103 160 238zM1589 840v236h-481v-236h481zM991 493v245h-446q-3 -151 -16 -245h462zM991 840v236h-446v-236h446z" />
    <glyph glyph-name="uni8A00" unicode="&#xe0100;" 
d="M1636 -117q0 -16 -16 -16h-95q-16 0 -16 16v78h-969v-86q0 -16 -18 -16h-93q-16 0 -16 16l4 291v113l-4 166q0 18 16 18l287 -4h619l285 4q16 0 16 -18l-4 -144v-131zM1509 70v280h-969v-280h969zM1915 1216q0 -16 -17 -16l-268 4h-1206l-269 -4q-16 0 -16 16v91
q0 16 16 16l269 -4h1206l268 4q17 0 17 -16v-91zM1648 1503q0 -16 -16 -16l-285 4h-643l-284 -4q-17 0 -17 16v85q0 18 17 18l284 -4h643l285 4q16 0 16 -18v-85zM1605 931q0 -16 -16 -16l-279 4h-569l-278 -4q-17 0 -17 16v87q0 16 17 16l278 -4h569l279 4q16 0 16 -16v-87
zM1605 649q0 -16 -16 -16l-279 4h-569l-278 -4q-17 0 -17 16v87q0 16 17 16l278 -4h569l279 4q16 0 16 -16v-87z" />
    <glyph glyph-name="uni8C37" unicode="&#xe0100;" 
d="M1980 604q-37 -26 -70 -86q-19 -31 -27 -31q-9 0 -30 12q-316 146 -528 317q-176 142 -320 335q-200 -284 -501 -496l274 -4h485l272 4q19 0 19 -16l-5 -205v-190l5 -353q0 -16 -19 -16h-94q-16 0 -16 16v109h-806v-121q0 -16 -17 -16h-96q-16 0 -16 16l4 359v167l-4 240
q-125 -87 -275 -162q-29 -14 -33 -14q-11 0 -30 30q-29 44 -70 70q262 106 491 295q192 160 316 342q42 64 61 117q62 -10 131 -33q21 -6 21 -21q0 -13 -27 -30q355 -442 905 -635zM1425 109v431h-806v-431h806zM1859 1249q-44 -31 -74 -75q-20 -29 -30 -29q-7 0 -29 12
q-318 191 -498 420q-4 6 -4 9q0 7 21 22l49 34q17 12 24 12q5 0 13 -9q125 -146 251 -237q108 -77 277 -159zM801 1571q0 -15 -29 -33q-21 -15 -47 -45q-165 -207 -394 -349q-28 -14 -30 -14q-9 0 -33 27q-35 41 -76 64q230 112 385 295q60 69 90 141q64 -29 113 -62
q21 -11 21 -24z" />
    <glyph glyph-name="uni8C46" unicode="&#xe0100;" 
d="M1606 618q0 -16 -16 -16l-281 4h-567l-281 -4q-16 0 -16 16l4 177v222l-4 177q0 16 16 16l281 -4h567l281 4q16 0 16 -16l-4 -177v-222zM1475 723v366h-901v-366h901zM1925 -4q0 -16 -16 -16l-266 4h-1237l-267 -4q-16 0 -16 16v97q0 16 16 16l267 -4h761q89 157 144 297
q24 62 33 123q77 -18 128 -37q23 -10 23 -23t-16 -26q-23 -17 -45 -70q-73 -156 -135 -264h344l266 4q16 0 16 -16v-97zM1862 1460q0 -16 -17 -16l-278 4h-1082l-278 -4q-16 0 -16 16v96q0 17 16 17l278 -4h1082l278 4q17 0 17 -17v-96zM828 227q1 -6 1 -10q0 -10 -24 -18
l-61 -23q-18 -6 -25 -6q-9 0 -14 14q-43 144 -123 285q-5 8 -5 12q0 8 25 17l62 22q12 5 17 5q6 0 13 -13q86 -136 134 -285z" />
    <glyph glyph-name="uni8C55" unicode="&#xe0100;" 
d="M1936 147q-52 -33 -82 -71q-21 -27 -29 -27q-9 0 -31 18q-302 237 -492 651q-151 330 -198 699h-76q-98 -133 -219 -227q359 -361 359 -889q0 -246 -74 -330q-64 -72 -223 -75q-41 0 -111 4q-29 2 -35 7q-6 6 -12 32q-10 47 -39 92q115 -13 180 -13q15 0 27 1
q89 0 124 54q40 63 40 226q0 120 -15 217q-277 -266 -755 -447q-24 -10 -31 -10q-10 0 -29 33q-25 45 -59 70q516 169 848 485q-33 122 -86 217q-263 -230 -643 -366q-26 -9 -34 -9q-12 0 -28 29q-19 39 -57 70q430 133 705 370q-64 90 -140 166q-185 -127 -432 -211
q-25 -9 -32 -9q-10 0 -27 32q-22 38 -58 63q250 74 443 190q173 105 272 228h-395l-279 -4q-16 0 -16 16v89q0 16 16 16l279 -4h1071l276 4q17 0 17 -16v-89q0 -16 -17 -16l-276 4h-346q37 -276 145 -534q150 125 246 254q38 52 57 98q71 -37 105 -66q20 -15 20 -30
q0 -13 -27 -29q-28 -16 -69 -66q-133 -146 -285 -270q203 -418 527 -627z" />
    <glyph glyph-name="uni8C78" unicode="&#xe0100;" 
d="M1602 1282q0 -10 -20 -20q-39 -19 -66 -41q-138 -117 -314 -209q308 -275 308 -725q0 -238 -75 -335q-63 -83 -196 -83q-84 0 -151 6q-31 3 -37 10q-5 5 -12 33q-12 51 -35 90q113 -18 223 -18q84 0 120 66q40 74 40 247q0 63 -11 146q-346 -276 -886 -414q-22 -6 -29 -6
q-13 0 -31 32q-20 41 -55 76q642 143 975 434q-28 95 -68 166q-295 -206 -784 -323q-24 -6 -31 -6q-12 0 -26 34q-20 47 -48 74q554 112 830 313q-52 71 -117 134q-260 -121 -577 -189q-21 -4 -28 -4q-15 0 -30 33q-18 43 -49 74q343 53 629 184q231 106 364 233
q38 32 74 84q63 -40 99 -69q14 -12 14 -27zM1530 1597q0 -15 -27 -22q-44 -10 -75 -25q-358 -158 -885 -229q-19 -3 -25 -3q-16 0 -34 36q-20 39 -58 73q587 66 891 199q55 25 107 68q58 -38 92 -72q14 -14 14 -25zM883 1081q4 -7 4 -10q0 -5 -20 -18l-46 -27
q-21 -12 -26 -12q-7 0 -14 14q-65 122 -144 213q-6 7 -6 11q0 5 18 16l52 28q10 7 15 7t15 -11q79 -87 152 -211zM1227 1231q4 -8 4 -12q0 -8 -20 -21l-45 -29q-16 -9 -22 -9q-7 0 -13 12q-46 92 -109 163q-10 11 -10 15q0 6 14 14l54 29q12 6 15 6q5 0 13 -8
q68 -72 119 -160z" />
    <glyph glyph-name="uni8C9D" unicode="&#xe0100;" 
d="M1628 319q0 -16 -16 -16l-285 4h-591l-285 -4q-16 0 -16 16l4 281v684l-4 281q0 16 16 16l285 -4h591l285 4q16 0 16 -16l-4 -281v-684zM1497 422v280h-931v-280h931zM1497 1194v266h-931v-266h931zM1497 815v266h-931v-266h931zM840 168q0 -15 -20 -21t-64 -36
q-195 -144 -477 -236q-19 -6 -27 -6q-14 0 -35 33q-25 47 -61 73q143 37 281 96q128 55 200 109q47 35 70 66q77 -30 113 -51q20 -13 20 -27zM1887 -14q-33 -30 -58 -76q-18 -33 -35 -33q-10 0 -28 6q-317 100 -531 275q-8 6 -8 11q0 6 21 21l51 41q12 11 19 11q6 0 16 -6
q224 -179 553 -250z" />
    <glyph glyph-name="uni8D64" unicode="&#xe0100;" 
d="M1913 886q0 -16 -17 -16l-270 4h-344v-598l2 -211q0 -107 -64 -143q-57 -33 -260 -33q-31 0 -39 6q-7 7 -14 35q-12 52 -39 93q97 -11 197 -11q56 0 75 23q17 19 17 63v776h-252q-7 -444 -149 -668q-120 -190 -404 -331q-25 -12 -31 -12q-10 0 -33 29q-30 39 -67 61
q331 139 447 350q108 194 112 571h-350l-271 -4q-16 0 -16 16v89q0 16 16 16l271 -4h520v295h-307l-291 -4q-16 0 -16 16v89q0 16 16 16l291 -4h307v55q0 177 -14 256q84 -3 141 -12q23 -3 23 -16q0 -10 -11 -37q-12 -37 -12 -185v-61h340l289 4q16 0 16 -16v-89
q0 -16 -16 -16l-289 4h-340v-295h549l270 4q17 0 17 -16v-89zM1904 268q-39 -21 -78 -59q-21 -25 -26 -25q-3 0 -27 27q-181 228 -282 467q-3 7 -3 10q0 9 27 21l55 22q12 5 17 5q6 0 10 -9q128 -277 307 -459zM559 676q0 -16 -21 -33q-16 -13 -30 -53q-87 -191 -220 -338
q-21 -25 -28 -25q-4 0 -31 21q-29 24 -76 41q138 124 221 299q43 90 51 151q69 -19 115 -41q19 -7 19 -22z" />
    <glyph glyph-name="uni8D70" unicode="&#xe0100;" 
d="M1942 59q-25 -38 -35 -92q-6 -32 -13 -37q-6 -5 -34 -8q-180 -18 -430 -18q-490 0 -704 172q-129 102 -207 229q-97 -237 -281 -404q-20 -20 -29 -20q-8 0 -28 21q-41 37 -76 53q302 247 379 653q11 61 14 125q73 -13 119 -28q27 -9 27 -21t-17 -29q-13 -15 -24 -67
q-24 -106 -41 -160q68 -132 211 -248q76 -63 180 -98v776h-529l-270 -4q-16 0 -16 16v89q0 16 16 16l270 -4h525v298h-324l-291 -4q-14 0 -14 16v89q0 16 14 16l291 -4h324v59q0 165 -15 256q82 -3 139 -12q23 -4 23 -18q0 -8 -10 -35q-12 -37 -12 -184v-66h338l290 4
q17 0 17 -16v-89q0 -16 -17 -16l-290 4h-338v-298h547l268 4q16 0 16 -16v-89q0 -16 -16 -16l-268 4h-545v-313h340l217 4q16 0 16 -18v-87q0 -16 -16 -16l-217 4h-340v-383q138 -24 338 -24q279 0 528 34z" />
    <glyph glyph-name="uni8DB3" unicode="&#xe0100;" 
d="M1950 61q-25 -35 -35 -90q-6 -31 -14 -37q-6 -5 -35 -7q-205 -23 -447 -23q-454 0 -673 160q-150 114 -246 276q-91 -249 -262 -436q-18 -25 -26 -25q-6 0 -33 21q-36 30 -76 47q284 281 357 684q13 69 13 118q0 11 -1 21q68 -10 123 -25q27 -6 27 -20q0 -13 -15 -31
q-20 -30 -29 -71q-11 -60 -35 -152q91 -188 256 -305q73 -55 172 -88v845h-248l-284 -4q-16 0 -16 16l4 187v258l-4 187q0 16 16 16l284 -4h616l285 4q19 0 19 -16l-4 -187v-258l4 -187q0 -16 -19 -16l-285 4h-245v-343h360l291 4q14 0 14 -16v-91q0 -16 -14 -16l-291 4
h-360v-418q132 -22 307 -22q291 0 549 36zM1516 1032v434h-966v-434h966z" />
    <glyph glyph-name="uni8EAB" unicode="&#xe0100;" 
d="M1909 948q0 -13 -22 -24q-31 -18 -60 -53q-122 -155 -291 -308v-229l4 -260q0 -99 -47 -140q-39 -31 -120 -40q-59 -7 -189 -7q-32 0 -39 6t-13 33q-11 53 -36 90q111 -10 223 -10q96 0 96 96v361q-421 -326 -1143 -566q-24 -7 -32 -7q-13 0 -31 32q-22 38 -57 64
q760 228 1189 551q-495 -78 -981 -125q-66 -7 -86 -17q-25 -10 -30 -10q-15 0 -21 18q-13 40 -29 122q104 0 222 8q10 0 31 1q44 2 67 5v670l-4 247q0 16 16 16l269 -4h28q38 58 74 135q29 62 37 117q60 -9 126 -29q25 -7 25 -22t-16 -25q-20 -13 -33 -39q-36 -69 -77 -137
h296l269 4q16 0 16 -16l-4 -272v-483q124 123 209 245q37 53 55 97q54 -33 90 -64q19 -16 19 -31zM1415 643v150h-782v-244q356 30 782 94zM1415 893v187h-782v-187h782zM1415 1180v184h-782v-184h782z" />
    <glyph glyph-name="uni8ECA" unicode="&#xe0100;" 
d="M1929 182q0 -16 -16 -16l-264 4h-576l4 -297q0 -16 -16 -16h-97q-16 0 -16 16q0 1 1 37q2 117 3 260h-540l-265 -4q-16 0 -16 16v87q0 16 16 16l265 -4h540v182h-258l-291 -4q-16 0 -16 16l4 195v295l-4 195q0 18 16 18l291 -4h258v173h-483l-277 -4q-16 0 -16 18v85
q0 16 16 16l277 -4h483q0 154 -16 242q58 -3 137 -11q23 -3 23 -18t-8 -37q-15 -39 -15 -176h510l277 4q16 0 16 -16v-85q0 -18 -16 -18l-277 4h-510v-173h285l289 4q16 0 16 -18l-4 -195v-295l4 -195q0 -16 -16 -16l-289 4h-285v-182h576l264 4q16 0 16 -16v-87zM1538 563
v211h-465v-211h465zM1538 872v202h-465v-202h465zM952 563v211h-440v-211h440zM952 872v202h-440v-202h440z" />
    <glyph glyph-name="uni8F9B" unicode="&#xe0100;" 
d="M1905 741q0 -16 -16 -16l-271 4h-548v-299h462l283 4q16 0 16 -16v-93q0 -16 -16 -16l-283 4h-462v-162l4 -287q0 -14 -17 -14h-100q-18 0 -18 14l4 287v162h-414l-283 -4q-16 0 -16 16v93q0 16 16 16l283 -4h414v299h-508l-271 -4q-16 0 -16 16v93q0 14 16 14l271 -4
h717q79 128 157 301q27 63 35 119q65 -16 121 -39q19 -8 19 -21q0 -11 -19 -26q-17 -15 -51 -88q-71 -146 -138 -246h342l271 4q16 0 16 -14v-93zM1815 1331q0 -16 -17 -16l-282 2h-977l-283 -2q-16 0 -16 16v91q0 16 16 16l283 -4h405v51q0 161 -14 223q64 -2 137 -10
q25 -3 25 -18q0 -11 -13 -39q-10 -23 -10 -152v-55h447l282 4q17 0 17 -16v-91zM787 971q3 -6 3 -10q0 -8 -22 -19l-59 -27q-19 -7 -24 -7q-8 0 -13 14q-56 152 -131 268q-4 8 -4 11q0 8 22 18l60 24q9 5 15 5t13 -11q85 -127 140 -266z" />
    <glyph glyph-name="uni8FB0" unicode="&#xe0100;" 
d="M1959 -13q-34 -35 -57 -80q-16 -31 -29 -31q-7 0 -30 9q-327 126 -525 358q-169 199 -268 502h-235v-653q200 42 456 123q-8 -33 -8 -70q0 -31 -6 -38t-35 -15q-322 -101 -659 -172q-63 -12 -80 -29q-12 -12 -24 -12t-21 22q-24 63 -36 125q122 10 216 27l72 12v680h-258
q-12 -160 -37 -301q-49 -280 -188 -518q-15 -25 -20 -25q-10 0 -27 20q-38 42 -82 62q152 224 199 508q45 245 45 639l-4 416q0 19 18 19l288 -4h930l287 4q16 0 16 -19v-88q0 -16 -16 -16l-287 4h-1109v-318q0 -143 -7 -272h1155l287 4q18 0 18 -16v-87q0 -16 -18 -16
l-287 4h-428q68 -203 182 -352q138 95 242 198q36 37 59 74q57 -32 102 -69q15 -12 15 -23q0 -13 -23 -22q-33 -13 -68 -41q-127 -106 -259 -195q205 -218 544 -328zM1698 1118q0 -16 -17 -16l-274 4h-514l-275 -4q-16 0 -16 16v89q0 16 16 16l275 -4h514l274 4q17 0 17 -16
v-89z" />
    <glyph glyph-name="uni8FB5" unicode="&#xe0100;" 
d="M307 1454q322 24 590 72q254 47 422 102q93 29 151 64q61 -36 101 -66q18 -13 18 -29q0 -19 -35 -22q-49 -8 -92 -22q-237 -74 -545 -132q-235 -44 -516 -73q-17 -2 -23 -2q-17 0 -28 34q-11 35 -43 74zM186 884q456 28 807 92q349 58 591 135q101 32 152 65
q57 -33 105 -71q18 -13 18 -31q0 -21 -35 -21q-42 -3 -94 -20q-344 -98 -637 -154v-315h356l197 4q18 0 18 -18v-87q0 -18 -18 -18l-197 4h-356v-396q125 -20 315 -20q297 0 531 33q-24 -38 -35 -95q-5 -27 -12 -33q-8 -7 -33 -10q-176 -16 -432 -16q-276 0 -443 43
q-150 40 -260 125q-143 117 -207 223q-95 -232 -284 -404q-19 -18 -27 -18q-6 0 -26 21q-42 37 -78 53q299 240 377 627q10 72 10 123q66 -9 120 -26q27 -10 27 -23q0 -12 -16 -28q-14 -14 -25 -64q-12 -59 -35 -138q67 -130 209 -244q82 -63 199 -100v775
q-345 -56 -686 -82q-12 -1 -18 -1q-14 0 -20 8q-4 5 -13 28q-20 43 -45 74zM307 1177q335 26 651 86q288 53 467 111q103 34 152 63q50 -28 100 -65q18 -13 18 -29q0 -17 -33 -22q-37 -7 -94 -23q-265 -81 -588 -141q-300 -57 -579 -82l-10 -1h-8q-19 0 -33 34
q-17 41 -43 69z" />
    <glyph glyph-name="uni9091" unicode="&#xe0100;" 
d="M1925 260q-11 -118 -40 -180q-26 -54 -76 -90q-69 -48 -247 -64q-137 -12 -432 -12q-569 0 -686 39q-139 41 -139 252v610l-4 164q0 16 16 16l293 -4h816l293 4q16 0 16 -16l-4 -164v-184l4 -164q0 -16 -16 -16l-293 4h-996v-211q0 -99 20 -135q22 -39 84 -52
q107 -22 582 -22q507 0 599 57q50 33 66 101q9 41 17 170q49 -34 93 -47q36 -12 36 -32q0 -5 -2 -24zM1606 561v324h-533v-324h533zM950 561v324h-520v-324h520zM1599 1178q0 -16 -16 -16l-283 4h-565l-285 -4q-16 0 -16 16l4 145v134l-4 145q0 16 16 16l285 -4h565l283 4
q16 0 16 -16l-4 -145v-134zM1472 1270v240h-911v-240h911z" />
    <glyph glyph-name="uni9149" unicode="&#xe0100;" 
d="M1911 1482q0 -14 -16 -14l-271 4h-395v-280h202l291 4q17 0 17 -16l-4 -375v-368l4 -545q0 -17 -17 -17h-92q-16 0 -16 17v102h-1193v-111q0 -16 -19 -16h-88q-16 0 -16 16l4 548v335l-4 414q0 16 16 16l291 -4h160v280h-336l-271 -4q-16 0 -16 14v93q0 16 16 16l271 -4
h1195l271 4q16 0 16 -16v-93zM1614 435v644h-385v-278q0 -53 18 -64q22 -12 94 -12q64 0 92 16q16 12 22 40q4 25 7 93q35 -26 80 -42q23 -9 23 -29q0 -6 -1 -12q-6 -105 -51 -137q-51 -39 -178 -39q-124 0 -166 22q-32 18 -43 43q-12 27 -12 80v319h-236q-11 -191 -76 -313
q-75 -127 -203 -213q-23 -16 -31 -16q-10 0 -29 25q-35 38 -67 53q164 88 229 208q52 89 62 256h-342v-644h1193zM1614 107v215h-1193v-215h1193zM1114 1192v280h-234v-280h234z" />
    <glyph glyph-name="uni91C6" unicode="&#xe0100;" 
d="M1974 129q-33 -30 -57 -82q-17 -31 -27 -31q-9 0 -30 12q-521 243 -797 680q0 -342 6 -650q1 -55 3 -130q1 -45 1 -53q0 -16 -16 -16h-107q-16 0 -16 16q0 7 2 121q7 337 8 702q-146 -225 -363 -409q-182 -154 -386 -257q-22 -12 -31 -12q-13 0 -27 31q-22 45 -55 72
q241 99 470 293q196 166 329 356h-455l-270 -4q-17 0 -17 16v89q0 14 17 14l270 -4h514v547q-313 -33 -596 -45q-30 0 -37 6q-6 5 -16 33q-21 54 -45 82q361 0 739 45q289 34 453 73q93 23 157 49q58 -36 105 -79q16 -17 16 -31q0 -19 -27 -19q-22 0 -84 -10
q-318 -64 -538 -90v-561h545l270 4q16 0 16 -14v-89q0 -16 -16 -16l-270 4h-488q168 -228 398 -400q217 -161 452 -243zM1636 1325q0 -6 -20 -27q-14 -13 -37 -57q-67 -140 -160 -268q-18 -25 -26 -25q-7 0 -33 16q-27 18 -70 31q107 134 185 305q18 41 28 95
q53 -16 115 -47q18 -11 18 -23zM688 1020q3 -6 3 -10q0 -7 -21 -17l-60 -30q-21 -12 -24 -12q-5 0 -8 13q-72 184 -154 293q-6 9 -6 12q0 4 22 17l56 29q11 6 17 6q7 0 13 -10q102 -134 162 -291z" />
    <glyph glyph-name="uni91CC" unicode="&#xe0100;" 
d="M1923 -21q0 -16 -17 -16l-264 4h-1236l-265 -4q-16 0 -16 16v89q0 16 16 16l265 -4h546v272h-350l-287 -4q-16 0 -16 18v85q0 18 16 18l287 -4h350v238h-276l-291 -4q-16 0 -16 16l4 221v414l-4 221q0 16 16 16l291 -4h692l290 4q19 0 19 -16l-4 -221v-414l4 -221
q0 -16 -19 -16l-290 4h-293v-238h377l288 4q17 0 17 -18v-85q0 -18 -17 -18l-288 4h-377v-272h567l264 4q17 0 17 -16v-89zM1552 807v287h-477v-287h477zM1552 1198v279h-477v-279h477zM952 807v287h-458v-287h458zM952 1198v279h-458v-279h458z" />
    <glyph glyph-name="uni91D1" unicode="&#xe0100;" 
d="M1870 -51q0 -16 -17 -16l-276 4h-1110l-277 -4q-16 0 -16 16v89q0 16 16 16l277 -4h477v535h-408l-282 -4q-17 0 -17 16v87q0 16 17 16l282 -4h408v256h-125l-256 -2q-16 0 -16 15v86q0 16 16 16l256 -4h403l259 4q16 0 16 -16v-86q0 -15 -16 -15l-259 2h-151v-256h444
l283 4q16 0 16 -16v-87q0 -12 -2 -14t-14 -2l-283 4h-444v-535h506l276 4q17 0 17 -16v-89zM1997 1024q-39 -34 -60 -80q-17 -31 -27 -31q-5 0 -32 10q-566 225 -865 629q-303 -406 -835 -649q-22 -9 -29 -9q-10 0 -28 28q-26 40 -66 63q574 245 844 627q44 65 59 114
q86 -11 131 -28q29 -10 29 -27q0 -10 -14 -18q-13 -6 -19 -13q187 -245 446 -405q195 -119 466 -211zM1593 440q0 -10 -20 -26q-14 -11 -33 -50q-87 -166 -146 -245q-17 -21 -24 -21q-9 0 -29 14q-39 28 -69 33q90 119 161 275q23 52 31 90q60 -19 104 -43q25 -15 25 -27z
M725 199q3 -8 3 -13q0 -9 -20 -18l-63 -31q-23 -11 -27 -11q-6 0 -10 13q-60 167 -146 293q-4 6 -4 10q0 7 23 19l55 24q19 9 23 9q7 0 14 -11q89 -128 152 -284z" />
    <glyph glyph-name="uni9580" unicode="&#xe0100;" 
d="M1822 107q0 -73 -13 -107q-11 -29 -40 -51q-32 -25 -87 -33q-54 -8 -175 -8q-32 0 -39 6q-5 6 -13 35q-14 52 -39 92q78 -10 169 -10q71 0 91 23q17 19 17 77v791h-356l-216 -4q-16 0 -16 16l4 187v282l-4 189q0 16 16 16l216 -4h250l217 4q16 0 16 -16l-4 -281v-895z
M1693 1022v199h-467v-199h467zM1693 1319v183h-467v-183h467zM915 934q0 -16 -16 -16l-197 4h-346v-618l4 -408q0 -16 -16 -16h-99q-16 0 -16 16l4 408v876l-4 412q0 16 16 16l224 -4h233l197 4q16 0 16 -16l-4 -199v-262zM794 1022v199h-438v-199h438zM794 1319v183h-438
v-183h438z" />
    <glyph glyph-name="uni961C" unicode="&#xe0100;" 
d="M1929 202q0 -16 -17 -16l-264 4h-567v-127l5 -209q0 -14 -17 -14h-100q-19 0 -19 14l4 209v127h-542l-265 -4q-16 0 -16 16v87q0 16 16 16l265 -4h542v189h-215l-303 -4q-16 0 -16 14l4 248v475l-4 250q0 16 16 16l297 -4h97q29 48 55 106q25 58 37 115q80 -17 120 -29
q21 -6 21 -22q0 -14 -17 -27q-19 -16 -30 -39q-34 -71 -56 -104h314l287 4q16 0 16 -16l-5 -139v-113l5 -140q0 -15 -16 -15l-287 4h-729v-165h809l302 4q17 0 17 -14l-4 -141v-111l4 -143q0 -14 -17 -14l-302 4h-273v-189h567l264 4q17 0 17 -16v-87zM1548 594v207h-1003
v-207h1003zM1452 1174v207h-907v-207h907z" />
    <glyph glyph-name="uni96B6" unicode="&#xe0100;" 
d="M1940 1104q0 -16 -17 -16l-235 4v-97l4 -206q0 -16 -18 -16l-312 4h-240q101 -201 226 -338q157 117 246 215q38 44 55 70q52 -28 92 -62q20 -15 20 -26q0 -15 -20 -23q-27 -11 -70 -49q-132 -119 -248 -201q189 -173 502 -300q-32 -22 -65 -73q-19 -31 -27 -31
q-4 0 -33 14q-266 132 -436 295q-179 172 -287 406q10 -379 10 -609q0 -67 -11 -99q-12 -32 -42 -52q-50 -33 -246 -33q-32 0 -38 6q-5 5 -11 33q-13 55 -39 92q79 -10 186 -10q51 0 67 22q13 19 13 70v271q-279 -156 -618 -298q-51 -19 -68 -41q-11 -14 -25 -14
q-10 0 -24 23q-28 49 -51 117q89 21 137 39q343 124 649 295v291h-303l-285 -4q-16 0 -16 16v78q0 16 16 16l285 -4h303v213h-549l-264 -4q-16 0 -16 16v82q0 16 16 16l264 -4h549v199h-295l-287 -4q-16 0 -16 16v82q0 16 16 16l287 -4h295q-3 141 -14 197q62 -3 127 -13
q25 -3 25 -16q0 -15 -10 -39q-11 -25 -11 -115v-14h279l312 4q18 0 18 -16l-4 -207v-86l235 4q17 0 17 -16v-82zM1573 879v213h-490v-213h490zM1573 1198v199h-490v-199h490zM698 514q8 -8 8 -12q0 -5 -14 -19l-47 -47q-15 -14 -21 -14q-5 0 -12 8q-99 117 -233 209
q-11 8 -11 13q0 6 15 18l45 39q11 9 17 9q5 0 14 -5q119 -79 239 -199z" />
    <glyph glyph-name="uni96B9" unicode="&#xe0100;" 
d="M1855 -2q0 -16 -16 -16l-291 4h-1020v-115q0 -16 -16 -16h-97q-16 0 -16 16l4 242v960q-99 -146 -207 -257q-18 -18 -29 -18q-6 0 -22 23q-30 41 -57 59q258 215 438 667q28 70 39 135q66 -19 127 -49q18 -8 18 -23q0 -10 -20 -24q-21 -18 -43 -68q-72 -153 -105 -213
h492q66 129 102 231q21 56 33 121q70 -18 126 -41q20 -10 20 -20q0 -15 -16 -27q-21 -17 -31 -43q-59 -138 -107 -221h375l289 4q16 0 16 -16v-89q0 -16 -16 -16l-289 4h-379v-281h277l284 4q17 0 17 -16v-85q0 -18 -17 -18l-284 4h-277v-288h272l285 4q16 0 16 -16v-87
q0 -16 -16 -16l-285 4h-272v-300h391l291 4q16 0 16 -14v-93zM1038 101v300h-510v-300h510zM1038 512v288h-510v-288h510zM1038 911v281h-510v-281h510z" />
    <glyph glyph-name="uni96E8" unicode="&#xe0100;" 
d="M1928 1468q0 -16 -17 -16l-264 4h-580v-280h443l289 4q16 0 16 -16l-4 -296v-540l4 -238q0 -100 -47 -139q-50 -44 -260 -41q-32 0 -39 6q-7 7 -13 35q-11 47 -38 86q93 -8 192 -8q76 0 76 82v954h-619v-807l4 -326q0 -18 -16 -18h-101q-16 0 -16 18l4 326v807h-573v-881
l4 -276q0 -17 -16 -17h-97q-16 0 -16 17l4 280v691l-4 285q0 16 16 16l289 -4h393v280h-540l-265 -4q-16 0 -16 16v92q0 19 16 19l265 -4h1245l264 4q17 0 17 -16v-95zM1555 324q8 -9 8 -13q0 -6 -17 -22l-41 -41q-20 -21 -26 -21q-5 0 -12 8q-121 124 -265 214q-8 5 -8 10
q0 8 17 24l34 37q14 15 21 15q5 0 16 -7q147 -91 273 -204zM1559 705q8 -8 8 -12q0 -7 -16 -23l-39 -39q-21 -20 -27 -20q-4 0 -10 6q-129 132 -264 219q-10 7 -10 11q0 5 18 23l37 37q13 14 20 14q4 0 12 -6q151 -97 271 -210zM836 307q8 -8 8 -13q0 -7 -14 -22l-47 -43
q-19 -16 -26 -16q-5 0 -13 8q-115 126 -252 217q-10 7 -10 12q0 6 18 21l37 33q14 14 22 14q6 0 15 -6q143 -92 262 -205zM838 711q9 -9 9 -14q0 -6 -13 -19l-45 -43q-17 -17 -25 -17q-5 0 -12 8q-110 119 -248 216q-9 6 -9 11q0 6 15 21l41 35q13 12 19 12q4 0 14 -6
q144 -95 254 -204z" />
    <glyph glyph-name="uni9751" unicode="&#xe0100;" 
d="M1595 55q0 -100 -47 -141t-258 -41q-33 0 -40 5q-6 6 -13 34q-13 52 -41 86q69 -6 192 -6q80 0 80 82v233h-885v-209l4 -227q0 -14 -16 -14h-97q-16 0 -16 14l4 223v444l-4 228q0 16 16 16l277 -4h549l277 4q18 0 18 -16l-4 -240v-235zM1468 407v269h-395v-269h395z
M958 407v269h-375v-269h375zM1908 928q0 -16 -16 -16l-270 4h-1188l-271 -4q-16 0 -16 16v78q0 16 16 16l271 -4h514v148h-250l-285 -4q-16 0 -16 16v74q0 16 16 16l285 -4h250v139h-365l-286 -4q-17 0 -17 16v78q0 16 17 16l286 -4h365q0 145 -15 203q93 -4 135 -10
q25 -4 25 -17q0 -6 -12 -39q-10 -25 -10 -137h391l289 4q16 0 16 -16v-78q0 -16 -16 -16l-289 4h-391v-139h290l283 4q16 0 16 -16v-74q0 -16 -16 -16l-283 4h-290v-148h551l270 4q16 0 16 -16v-78z" />
    <glyph glyph-name="uni975E" unicode="&#xe0100;" 
d="M1031 669q-9 -28 -13 -71q-1 -34 -7 -41q-5 -6 -32 -15q-21 -7 -133 -45q-14 -84 -47 -172q-103 -290 -430 -459q-33 -12 -35 -12q-13 0 -31 29q-24 37 -69 63q192 77 299 182q94 92 147 228q16 40 33 100q-218 -64 -412 -112q-93 -25 -104 -33q-19 -14 -29 -14
q-15 0 -24 29q-17 44 -31 112q78 6 168 24q241 51 454 115q12 77 19 252h-313l-203 -4q-17 0 -17 16v89q0 16 17 16l203 -4h315v268h-354l-217 -4q-17 0 -17 16v91q0 16 17 16l217 -4h354v29q0 227 -16 325q64 -2 133 -10q29 -3 29 -20q0 -2 -13 -39q-12 -40 -12 -244v-363
q0 -249 -12 -387q3 1 166 53zM1916 374q0 -16 -17 -16l-225 4h-385v-123l4 -352q0 -17 -16 -17h-97q-16 0 -16 17l4 350v1164q0 189 -14 282q73 -2 133 -12q25 -3 25 -16q0 -15 -8 -37q-15 -43 -15 -211v-82h360l220 4q16 0 16 -16v-91q0 -16 -16 -16l-220 4h-360v-295h317
l207 4q17 0 17 -16v-89q0 -16 -17 -16l-207 4h-317v-325h385l225 4q17 0 17 -16v-91z" />
    <glyph glyph-name="uni9762" unicode="&#xe0100;" 
d="M1915 1486q0 -14 -16 -14l-269 4h-567q-50 -166 -127 -311h586l287 4q16 0 16 -16l-4 -375v-357l4 -537q0 -17 -16 -17h-97q-16 0 -16 17v100h-1346v-102q0 -17 -16 -17h-95q-16 0 -16 17l4 539v321l-4 411q0 16 16 16l287 -4h279q72 135 125 311h-512l-269 -4
q-16 0 -16 14v93q0 16 16 16l269 -4h1212l269 4q16 0 16 -16v-93zM1696 95v961h-346v-961h346zM694 95v961h-344v-961h344zM1231 95v259h-420v-259h420zM1231 456v253h-420v-253h420zM1231 811v245h-420v-245h420z" />
    <glyph glyph-name="uni9769" unicode="&#xe0100;" 
d="M1923 192q0 -16 -19 -16l-266 4h-567v-35l4 -291q0 -14 -17 -14h-98q-14 0 -14 14l4 291v35h-540l-267 -4q-16 0 -16 16v89q0 16 16 16l267 -4h540v180h-268l-291 -4q-16 0 -16 16l4 152v149l-4 150q0 16 16 16l291 -4h268v166h-62l-221 -4q-16 0 -16 16l4 188v72h-239
l-266 -4q-19 0 -19 16v85q0 18 19 18l266 -4h239q0 147 -14 205q74 -4 129 -10q25 -4 25 -17q0 -10 -13 -35q-10 -25 -10 -143h493q0 136 -14 205q69 -3 129 -10q25 -4 25 -17q0 -6 -13 -35q-10 -23 -10 -143h250l266 4q16 0 16 -18v-85q0 -16 -16 -16l-266 4h-250v-72
l4 -188q0 -16 -17 -16l-220 4h-78v-166h294l291 4q17 0 17 -16l-4 -150v-149l4 -152q0 -16 -17 -16l-291 4h-294v-180h567l266 4q19 0 19 -16v-89zM1548 575v271h-477v-271h477zM950 575v271h-450v-271h450zM1265 1210v176h-493v-176h493z" />
    <glyph glyph-name="uni97CB" unicode="&#xe0100;" 
d="M1913 129q0 -16 -17 -16l-270 4h-391v-29l4 -223q0 -14 -16 -14h-99q-16 0 -16 14l4 223v29h-694l-269 -4q-16 0 -16 16v80q0 16 16 16l265 -4v147l-5 119q0 16 16 16l294 -4h393v136h-363l-278 -4q-16 0 -16 16l4 121v107l-4 121q0 16 16 16l278 -4h547l279 4
q16 0 16 -16l-4 -121v-107l4 -121q0 -16 -16 -16l-279 4h-61v-136h205l288 4q17 0 17 -16v-76q0 -16 -17 -16l-288 4h-205v-178h391l270 4q17 0 17 -16v-80zM1464 729v181h-882v-181h882zM1112 221v178h-576v-178h576zM1911 1139q0 -16 -19 -16l-268 4h-1202l-269 -4
q-16 0 -16 16v78q0 16 16 16l269 -4h274q45 89 84 184h-96l-279 -4q-16 0 -16 18v74q0 14 16 14l279 -2h137l25 70q24 72 28 119q63 -9 127 -23q23 -3 23 -20q0 -16 -16 -29q-15 -13 -29 -47q-14 -42 -27 -70h314l283 2q16 0 16 -14l-5 -119v-153h64l268 4q19 0 19 -16v-78z
M1436 1229v184h-525q-33 -78 -84 -184h609z" />
    <glyph glyph-name="uni97ED" unicode="&#xe0100;" 
d="M1940 -35q0 -16 -15 -16l-264 4h-1262l-262 -4q-16 0 -16 16v91q0 16 16 16l262 -4h377v317h-320l-206 -4q-19 0 -19 16v89q0 16 19 16l206 -4h320v276h-287l-196 -4q-17 0 -17 16v89q0 16 17 16l196 -4h287v262h-315l-207 -4q-17 0 -17 16v89q0 16 17 16l207 -4h315v160
q0 161 -14 241q85 -3 139 -12q23 -4 23 -18q0 -15 -8 -31q-15 -31 -15 -160v-1374h240v1354q0 174 -14 241q82 -3 137 -12q25 -3 25 -16q0 -12 -8 -31q-15 -37 -15 -158v-186h350l215 4q17 0 17 -14v-91q0 -16 -17 -16l-215 4h-350v-262h315l201 4q16 0 16 -16v-89
q0 -16 -16 -16l-201 4h-315v-276h342l213 4q16 0 16 -16v-89q0 -16 -16 -16l-213 4h-342v-315h395l264 4q15 0 15 -16v-91z" />
    <glyph glyph-name="uni97F3" unicode="&#xe0100;" 
d="M1599 -121q0 -17 -16 -17h-95q-16 0 -16 17v94h-892v-102q0 -15 -16 -15h-95q-16 0 -16 15l4 387v190l-4 259q0 16 16 16l281 -4h552l281 4q16 0 16 -16l-4 -232v-215zM1472 79v222h-892v-222h892zM1472 405v208h-892v-208h892zM1935 911q0 -16 -16 -16l-264 4h-1251
l-263 -4q-16 0 -16 16v89q0 16 16 16l263 -4h280q-38 126 -108 262q-3 6 -3 9q0 6 23 16l64 20q9 3 13 3q9 0 17 -13q72 -126 123 -297h385q66 139 96 223q18 49 23 99q83 -17 120 -31q23 -9 23 -23q0 -12 -14 -26q-18 -18 -29 -43q-69 -159 -90 -199h328l264 4q16 0 16 -16
v-89zM1798 1390q0 -18 -16 -18l-283 4h-954l-285 -4q-16 0 -16 18v87q0 16 16 16l285 -4h399v12q0 150 -14 205q75 0 135 -8q25 -3 25 -16q0 -15 -10 -39q-11 -23 -11 -142v-12h428l285 4q16 0 16 -16v-87z" />
    <glyph glyph-name="uni9801" unicode="&#xe0100;" 
d="M1892 1484q0 -14 -16 -14l-274 4h-529q-35 -102 -86 -210h338q129 1 222 3q13 0 48 1h15q16 0 16 -16l-4 -240v-531l4 -242q0 -16 -16 -16l-285 4h-592l-285 -4q-16 0 -16 16l4 242v531l-4 240q0 16 16 16q3 0 35 -1q103 -2 250 -3h125q47 101 84 210h-488l-274 -4
q-16 0 -16 14v91q0 16 16 16l274 -4h1148l274 4q16 0 16 -16v-91zM1499 336v213h-940v-213h940zM1499 651v203h-940v-203h940zM1499 956v202h-940v-202h940zM805 109q0 -14 -23 -21q-15 -5 -59 -31q-210 -126 -473 -194q-19 -6 -29 -6q-16 0 -31 35q-19 44 -51 73
q287 55 467 164q45 28 76 61q60 -27 102 -55q21 -14 21 -26zM1898 -37q-29 -26 -53 -77q-15 -33 -31 -33q-10 0 -28 6q-317 83 -535 245q-7 7 -7 11q0 6 21 20l52 37q18 13 24 13q4 0 10 -5q229 -160 547 -217z" />
    <glyph glyph-name="uni98A8" unicode="&#xe0100;" 
d="M1555 12q2 -6 2 -9q0 -7 -20 -17l-48 -25q-20 -10 -24 -10q-7 0 -10 16q-19 60 -66 166q-298 -60 -795 -133q-61 -9 -82 -25q-15 -10 -24 -10q-14 0 -25 25q-26 74 -35 119q112 0 230 14q59 6 286 37v303h-98l-236 -4q-16 0 -16 14l4 156v153l-4 154q0 16 16 16l236 -4
h98v219q-161 -24 -307 -41q-18 -2 -25 -2q-20 0 -30 31q-12 37 -39 68q378 20 660 98q92 27 133 57q50 -34 83 -71q17 -17 17 -31q0 -19 -35 -19q-5 0 -88 -18q-159 -34 -258 -51v-240h96l234 4q19 0 19 -16l-5 -154v-153l5 -156q0 -14 -19 -14l-234 4h-96v-287l287 47
q-37 66 -56 94q-6 9 -6 13q0 8 23 18l43 21q11 5 17 5t14 -12q110 -164 178 -350zM944 555v301h-241v-301h241zM1295 555v301h-240v-301h240zM2010 239q-16 -201 -63 -280q-38 -65 -107 -65q-88 0 -148 121q-49 101 -92 311q-48 249 -51 921v237h-1100v-350q0 -440 -35 -674
q-49 -320 -219 -557q-16 -22 -23 -22t-26 23q-29 34 -76 57q186 202 229 528q31 229 31 647l-4 447q0 16 16 16l289 -4h736l290 4q17 0 17 -16l-6 -287v-56q0 -640 41 -867q64 -338 135 -338q61 0 76 327q28 -38 69 -63q23 -14 23 -30q0 -3 -2 -30z" />
    <glyph glyph-name="uni98DB" unicode="&#xe0100;" 
d="M1991 84q-48 -209 -172 -209q-103 0 -213 95q-96 83 -166 214q-110 196 -121 534h-284v-489l3 -352q0 -16 -16 -16h-94q-17 0 -17 16l4 352v489h-317q-11 -242 -79 -421q-84 -224 -279 -402q-24 -20 -33 -20q-7 0 -28 25q-27 34 -66 59q219 171 291 374q66 178 78 385
h-68l-287 -4q-16 0 -16 16v85q0 16 16 16l287 -4h72q2 35 2 113v180q-117 -57 -236 -97q-25 -8 -32 -8q-14 0 -27 29q-18 39 -43 62q304 87 485 221q40 30 66 65q40 -25 83 -59q16 -13 16 -27q0 -15 -26 -22q-18 -6 -61 -35q-49 -34 -110 -68v-354h312v289q0 201 -14 282
q73 -3 134 -12q27 -4 27 -20q0 -7 -7 -20q-6 -12 -8 -19q-12 -50 -12 -207v-293h94l290 4q19 0 19 -18v-47q0 -108 17 -232q23 -169 94 -303q53 -101 140 -170q72 -57 124 -57q29 0 54 55q24 54 34 141q33 -39 66 -57q29 -15 29 -30q0 -7 -5 -29zM1954 956
q-52 -199 -176 -199q-75 0 -148 45q-79 49 -133 139q-124 205 -129 541h-838l-286 -4q-17 0 -17 16v85q0 16 17 16l286 -4h650l288 4q19 0 19 -18q-2 -41 -2 -75q0 -98 12 -188q30 -197 94 -307q40 -67 106 -104q46 -25 79 -25q29 0 54 49t36 135q33 -36 65 -51
q29 -11 29 -26q0 -8 -6 -29zM1861 1536q0 -12 -20 -23q-25 -12 -41 -31q-51 -57 -129 -123q-23 -16 -31 -16t-20 19q-21 32 -53 51q98 69 155 139q29 36 41 66q46 -28 78 -56q20 -17 20 -26zM1905 295q9 -8 9 -13t-12 -20l-34 -41q-17 -18 -23 -18q-5 0 -14 8
q-100 81 -207 135q-12 6 -12 12t10 19l31 39q10 14 17 14q5 0 13 -4q122 -56 222 -131zM1882 1159q10 -8 10 -14t-12 -25l-31 -43q-10 -15 -17 -15q-5 0 -15 9q-77 64 -205 125q-13 6 -13 12t11 22l28 41q10 14 18 14q4 0 13 -3q118 -53 213 -123zM1821 662q0 -14 -17 -21
q-15 -7 -37 -37q-50 -59 -112 -112q-24 -21 -33 -21q-11 0 -31 23q-25 28 -47 41q89 70 137 129q32 40 41 69q50 -25 82 -51q17 -13 17 -20z" />
    <glyph glyph-name="uni98DF" unicode="&#xe0100;" 
d="M1933 -34q-32 -33 -53 -80q-14 -31 -28 -31q-7 0 -32 6q-386 109 -580 240q-204 138 -339 381h-299v-428q233 43 498 108q-11 -37 -11 -71q0 -33 -7 -39q-4 -5 -34 -12q-317 -81 -708 -154q-64 -12 -84 -29q-14 -10 -23 -10q-12 0 -20 21q-21 52 -35 124q97 8 219 27
q51 7 84 14v811l-4 272q0 16 16 16l287 -4h174v64q0 107 -14 176q56 -2 129 -12q24 -3 24 -17q0 -10 -12 -39q-10 -22 -10 -94v-78h186l277 4q16 0 16 -16l-4 -195v-235l4 -192q0 -16 -16 -16l-277 4h-231q91 -153 233 -258q185 118 285 215q42 42 63 80q55 -34 105 -74
q16 -13 16 -27q0 -13 -25 -20q-25 -6 -67 -39q-118 -93 -278 -197q200 -112 575 -196zM1429 582v180h-827v-180h827zM1429 860v168h-827v-168h827zM1998 1120q-36 -36 -55 -79q-16 -34 -28 -34q-6 0 -29 7q-278 99 -521 261q-217 145 -350 306q-332 -396 -841 -592
q-19 -8 -27 -8q-12 0 -31 32q-24 43 -57 70q524 177 838 543q40 44 63 100q55 -7 129 -26q27 -7 27 -21q0 -12 -12 -18q-13 -6 -17 -10q165 -177 413 -321q238 -137 498 -210z" />
    <glyph glyph-name="uni9996" unicode="&#xe0100;" 
d="M1923 1275q0 -16 -17 -16l-268 4h-585q-48 -142 -80 -216h356l286 4q17 0 17 -16l-4 -341v-312l4 -493q0 -16 -17 -16h-94q-16 0 -16 16v86h-966v-90q0 -16 -17 -16h-92q-16 0 -16 16l4 495v284l-4 371q0 16 16 16l285 -4h127q49 107 79 216h-509l-267 -4q-16 0 -16 16
v85q0 16 16 16l267 -4h741q89 133 141 240q20 40 29 88q51 -11 118 -33q23 -8 23 -23q0 -14 -21 -26q-8 -5 -30 -41q-59 -106 -131 -205h356l268 4q17 0 17 -16v-85zM1505 79v230h-966v-230h966zM1505 725v218h-966v-218h966zM1505 409v218h-966v-218h966zM831 1475
q3 -6 3 -10q0 -9 -21 -19l-56 -25q-21 -9 -27 -9q-8 0 -13 11q-47 106 -139 215q-6 7 -6 12q0 8 20 17l57 23q15 6 20 6q8 0 15 -8q88 -102 147 -213z" />
    <glyph glyph-name="uni9999" unicode="&#xe0100;" 
d="M1563 -121q0 -14 -16 -14h-93q-16 0 -16 14v90h-831v-96q0 -17 -17 -17h-92q-14 0 -14 17l2 373v182l-2 246q0 16 14 16l275 -4h501l272 4q17 0 17 -16l-2 -219v-205zM1438 71v216h-831v-216h831zM1438 387v197h-831v-197h831zM1950 744q-31 -26 -57 -74q-20 -37 -31 -37
q-8 0 -28 8q-443 181 -766 467q0 -111 6 -243q4 -97 4 -101q0 -16 -16 -16h-101q-16 0 -16 16q0 3 5 129q4 112 5 211q-306 -291 -739 -466q-20 -8 -27 -8q-12 0 -31 36q-18 35 -53 65q426 138 758 412h-400l-278 -4q-17 0 -17 16v80q0 14 17 14l278 -4h488v205
q-282 -28 -506 -41q-14 -1 -20 -1q-18 0 -25 8q-4 5 -14 28q-13 33 -45 69q290 10 643 43q204 19 413 64q68 13 138 43q66 -38 108 -78q15 -14 15 -29q0 -20 -41 -20q-40 0 -121 -14q-185 -36 -424 -62v-215h510l278 4q17 0 17 -14v-80q0 -16 -17 -16l-278 4h-426
q198 -144 384 -236q174 -86 410 -163z" />
    <glyph glyph-name="uni99AC" unicode="&#xe0100;" 
d="M1857 611q-4 -28 -7 -74q-4 -51 -5 -63q-35 -351 -84 -472q-47 -119 -191 -119q-43 0 -137 4q-29 2 -34 8t-11 37q-10 48 -29 82q112 -14 191 -14q53 0 76 21q23 22 39 77q42 156 57 421h-1046l-312 -4q-16 0 -16 16l4 254v517l-4 254q0 17 16 17l312 -4h772l286 4
q17 0 17 -17v-84q0 -16 -17 -16l-286 4h-365v-207h250l284 2q17 0 17 -14v-80q0 -16 -17 -16l-284 4h-250v-209h250l284 4q17 0 17 -16v-80q0 -16 -17 -16l-284 4h-250v-213h463l293 4q19 0 19 -12q0 -1 -1 -4zM964 623v213h-493v-213h493zM964 940v209h-493v-209h493z
M964 1253v207h-493v-207h493zM452 358q-77 -252 -210 -426q-7 -10 -13 -10q-7 0 -22 10l-64 37q-20 13 -20 20q0 4 6 11q142 157 211 403q3 10 11 10q6 0 26 -7l57 -21q20 -8 20 -16q0 -4 -2 -11zM778 6q1 -4 1 -6q0 -12 -28 -16l-59 -9q-14 -2 -21 -2q-14 0 -14 15
q-9 198 -55 370q-1 6 -1 8q0 8 26 13l59 8q9 1 12 1q11 0 15 -15q49 -164 65 -367zM1139 82q1 -5 1 -8q0 -8 -24 -15l-59 -16q-14 -4 -19 -4q-9 0 -12 16q-34 171 -88 301q-4 8 -4 12q0 7 22 11l56 12q8 2 13 2q10 0 15 -14q59 -125 99 -297zM1474 162q2 -7 2 -10
q0 -9 -20 -15l-53 -18q-16 -5 -21 -5q-8 0 -12 15q-37 141 -104 256q-4 7 -4 11q0 8 24 14l45 12q11 3 16 3q7 0 15 -11q72 -121 112 -252z" />
    <glyph glyph-name="uni9AA8" unicode="&#xe0100;" 
d="M1861 711q0 -17 -16 -17h-95q-16 0 -16 17v266h-1419v-266q0 -17 -16 -17h-95q-16 0 -16 17l4 198v62l-4 96q0 16 16 16l283 -4h10v333l-4 180q0 16 16 16l273 -4h485l273 4q16 0 16 -16l-4 -180v-333h12l281 4q16 0 16 -16l-4 -86v-72zM1433 1354v146h-815v-421h334v146
l-4 117q0 16 16 16l182 -4h287zM1433 1079v181h-364v-181h364zM1519 55q0 -98 -47 -139q-30 -25 -88 -33q-55 -8 -172 -8q-32 0 -39 6t-14 33q-12 46 -35 84q89 -8 190 -8q47 0 65 21q15 19 15 61v131h-737v-96l4 -234q0 -16 -16 -16h-95q-16 0 -16 16l4 230v480l-4 234
q0 16 16 16l265 -4h423l263 4q16 0 16 -16l-4 -246v-278zM1394 301v168h-737v-168h737zM1394 567v162h-737v-162h737z" />
    <glyph glyph-name="uni9AD8" unicode="&#xe0100;" 
d="M1517 873q0 -14 -16 -14l-263 4h-423l-263 -4q-16 0 -16 14l4 133v115l-4 133q0 16 16 16l263 -4h423l263 4q16 0 16 -16l-4 -133v-115zM1392 961v207h-733v-207h733zM1818 711l-4 -230v-174l2 -264q0 -87 -45 -125q-42 -37 -188 -37h-39q-31 0 -38 7q-6 6 -12 34
q-13 51 -34 84q79 -8 166 -8q65 0 65 74v540h-1329v-485l4 -248q0 -16 -16 -16h-99q-16 0 -16 16l4 246v366l-4 220q0 16 16 16l287 -4h975l289 4q16 0 16 -16zM1384 39q0 -17 -16 -17h-86q-19 0 -19 17v61h-493v-78q0 -16 -17 -16h-86q-16 0 -16 16l4 232v88l-4 121
q0 16 16 16l217 -4h267l217 4q16 0 16 -16l-4 -103v-98zM1263 192v191h-493v-191h493zM1906 1410q0 -16 -16 -16l-273 4h-1183l-271 -4q-16 0 -16 16v89q0 16 16 16l271 -4h514v21q0 118 -15 176q72 -3 133 -10q27 -4 27 -19q0 -5 -14 -39q-8 -19 -8 -108v-21h546l273 4
q16 0 16 -16v-89z" />
    <glyph glyph-name="uni9ADF" unicode="&#xe0100;" 
d="M1094 592q0 -16 -17 -16l-266 4h-262q-86 -274 -170 -445q280 43 475 88q-58 100 -127 195q-6 7 -6 11q0 7 19 16l55 26q10 6 14 6q6 0 14 -10q128 -168 244 -399q4 -9 4 -13q0 -6 -16 -14l-59 -31q-20 -10 -26 -10q-7 0 -11 13q-22 52 -54 114q-241 -57 -643 -129
q-74 -11 -102 -27q-17 -8 -25 -8q-13 0 -20 20q-19 54 -33 124q76 2 158 10q114 220 180 463h-55l-265 -4q-16 0 -16 16v82q0 16 16 16l201 -4v629l-4 235q0 17 16 17l228 -4h274l224 4q16 0 16 -17v-84q0 -16 -16 -16l-224 4h-395v-186h332l205 4q18 0 18 -16v-76
q0 -16 -18 -16l-205 4h-332v-181h330l207 4q16 0 16 -16v-78q0 -14 -16 -14l-207 4h-330v-201h391l266 4q17 0 17 -16v-82zM1966 508q0 -13 -23 -25q-17 -8 -79 -78q-288 -327 -688 -510q-24 -10 -31 -10q-11 0 -25 25q-21 36 -69 72q253 102 444 247q140 106 279 260
q49 55 77 111q51 -30 101 -68q14 -11 14 -24zM1880 1061q0 -14 -20 -23q-17 -7 -68 -65q-222 -247 -541 -418q-21 -12 -30 -12q-10 0 -25 25q-21 33 -65 69q368 168 571 418q47 54 61 96q68 -40 101 -66q16 -13 16 -24zM1798 1538q0 -13 -21 -23q-16 -7 -73 -61
q-233 -213 -479 -343q-18 -10 -31 -10q-12 0 -31 33q-19 34 -55 60q297 133 498 337q53 54 78 101q60 -37 94 -66q20 -17 20 -28z" />
    <glyph glyph-name="uni9B25" unicode="&#xe0100;" 
d="M1860 1632q0 -10 -13 -39q-12 -27 -12 -178v-1024l4 -303q0 -122 -59 -162q-62 -43 -281 -43q-51 0 -60 7q-8 5 -14 36q-11 53 -35 88q90 -8 191 -8q81 0 108 26q23 23 23 81v1298q0 171 -14 250q78 -3 135 -12q27 -4 27 -17zM358 1628q0 -6 -8 -35q-12 -37 -12 -213
v-1159l4 -346q0 -16 -16 -16h-99q-16 0 -16 16l4 346v1155q0 187 -14 281q60 -2 134 -10q23 -4 23 -19zM1657 1003q0 -16 -16 -16l-187 4h-184l-188 -4q-17 0 -17 16v68q0 14 17 14l188 -2h29v176h-15l-163 -4q-17 0 -17 16v64q0 16 17 16l163 -4h15v160h-23l-180 -4
q-16 0 -16 16v68q0 16 16 16l180 -4h168l180 4q17 0 17 -16v-68q0 -16 -17 -16l-180 4h-39v-160h31l166 4q16 0 16 -16v-64q0 -16 -16 -16l-166 4h-31v-176h49l187 2q16 0 16 -14v-68zM979 1003q0 -16 -16 -16l-187 4h-180l-186 -4q-16 0 -16 16v68q0 14 16 14l186 -2h39
v176h-22l-164 -4q-17 0 -17 16v64q0 16 17 16l164 -4h22v160h-33l-178 -4q-16 0 -16 16v68q0 16 16 16l178 -4h166l181 4q16 0 16 -16v-68q0 -16 -16 -16l-181 4h-26v-160h20l166 4q16 0 16 -16v-64q0 -16 -16 -16l-166 4h-20v-176h34l187 2q16 0 16 -14v-68z" />
    <glyph glyph-name="uni9B2F" unicode="&#xe0100;" 
d="M1815 1593q0 -11 -11 -29q-12 -27 -12 -176v-481l4 -275q0 -16 -16 -16h-97q-16 0 -16 16v80h-1292v-68q0 -16 -16 -16h-97q-16 0 -16 16l4 263v471q0 167 -14 246q76 -3 137 -12q25 -4 25 -17q0 -12 -12 -41q-11 -25 -11 -168v-563h1292v557q0 184 -14 246
q78 -3 137 -12q25 -4 25 -21zM1825 217q-9 -111 -40 -167q-24 -43 -79 -82q-68 -46 -246 -59q-123 -9 -427 -9q-400 0 -492 24q-79 22 -107 68q-30 48 -30 153v240q0 176 -10 242l131 -13q31 -3 31 -20q0 -10 -10 -37q-17 -41 -17 -170v-6q140 16 412 65q250 49 368 89
q112 38 158 67q58 -41 98 -78q21 -20 21 -32q0 -23 -39 -23q-23 0 -82 -16q-240 -72 -485 -113q-241 -43 -451 -70v-82q0 -92 21 -120q20 -27 83 -37q84 -12 410 -12q286 0 398 9q131 11 177 40q51 30 68 87q15 46 20 158q32 -26 89 -45q32 -11 32 -29q0 -7 -2 -22z
M1514 1018q9 -8 9 -13t-11 -18l-37 -43q-16 -18 -23 -18q-5 0 -14 7q-185 142 -371 259q-226 -170 -499 -273q-22 -8 -30 -8q-11 0 -28 23q-26 36 -57 57q291 90 524 256q-172 101 -393 211q-10 6 -10 10t12 19l35 36q12 14 19 14q4 0 12 -3q225 -108 413 -222
q112 92 195 191q72 86 94 152q41 -20 93 -50q22 -14 22 -26q0 -10 -22 -25q-29 -18 -74 -74q-101 -123 -219 -221q169 -107 360 -241zM1600 1210l-37 -39q-13 -14 -19 -14q-5 0 -14 9q-67 73 -159 128q-9 6 -9 11t11 16l32 33q13 13 20 13q4 0 11 -5q98 -62 162 -125
q9 -10 9 -14t-7 -13zM1096 1546q7 -7 7 -12q0 -7 -11 -18l-33 -35q-14 -14 -18 -14q-5 0 -12 8q-75 71 -160 122q-11 6 -11 12q0 7 13 19l31 29q12 12 18 12q4 0 12 -4q91 -54 164 -119zM1176 931q6 -5 6 -10q0 -6 -12 -18l-31 -31q-14 -15 -21 -15q-5 0 -14 9
q-63 65 -152 127q-8 5 -8 10q0 7 17 21l29 24q10 10 18 10q6 0 12 -4q88 -54 156 -123zM709 1241q9 -9 9 -14q0 -6 -11 -17l-33 -32q-13 -15 -20 -15q-6 0 -15 9q-81 74 -155 114q-9 6 -9 10t15 19l31 28q12 13 19 13q4 0 11 -4q84 -46 158 -111z" />
    <glyph glyph-name="uni9B32" unicode="&#xe0100;" 
d="M1828 45q0 -86 -47 -123q-45 -39 -202 -39h-32q-31 0 -37 6q-7 6 -14 35q-13 53 -35 84q77 -8 170 -8q70 0 70 74v623h-477v-131q0 -37 23 -46q19 -8 106 -8q114 0 137 27q16 21 23 97q26 -15 69 -31q28 -10 28 -25q0 -5 -2 -16q-14 -84 -51 -111q-49 -39 -212 -39
q-135 0 -178 16q-31 13 -42 33q-11 21 -11 64v170h-218q-22 -146 -145 -240q-89 -68 -219 -100q-18 -6 -26 -6q-14 0 -25 24q-22 48 -49 72q308 55 350 250h-430v-588l4 -228q0 -16 -14 -16h-99q-18 0 -18 16l4 224v455l-4 227q0 16 18 16l285 -4h997l287 4q16 0 16 -16
l-4 -240v-235zM1570 967q0 -16 -16 -16l-275 4h-509l-275 -4q-16 0 -16 16l4 127v112l-4 125q0 16 16 16l275 -4h509l275 4q16 0 16 -16l-4 -125v-112zM1445 1053v192h-841v-192h841zM1904 1503q0 -16 -16 -16l-273 4h-1183l-271 -4q-16 0 -16 16v87q0 16 16 16l271 -4h1183
l273 4q16 0 16 -16v-87zM1478 225q0 -16 -16 -16l-250 4h-129v-156l4 -131q0 -16 -16 -16h-92q-17 0 -17 16l4 131v156h-123l-249 -4q-17 0 -17 16v74q0 16 17 16l249 -4h369l250 4q16 0 16 -16v-74z" />
    <glyph glyph-name="uni9B5A" unicode="&#xe0100;" 
d="M1675 395q0 -16 -16 -16l-291 4h-645l-289 -4q-16 0 -16 16l4 207v342q0 133 -4 186q-81 -63 -195 -135q-20 -14 -28 -14q-9 0 -25 29q-21 37 -53 65q365 201 567 498q47 67 66 135q54 -14 112 -37q23 -10 23 -25q0 -13 -20 -26q-21 -17 -46 -56q-2 -3 -18 -29
q-9 -15 -16 -24h428q30 0 43 6q8 4 18 4q20 0 57 -33q41 -35 41 -51q0 -15 -27 -28q-16 -9 -51 -51q-64 -88 -161 -195h235l291 4q16 0 16 -16l-4 -207v-342zM1186 1407h-479q-112 -135 -244 -242l260 -2h275q116 135 188 244zM1552 483v248h-458v-248h458zM977 483v248
h-436v-248h436zM1552 829v234h-458v-234h458zM977 829v234h-436v-234h436zM518 209q-87 -172 -251 -318q-11 -10 -19 -10t-20 8l-56 41q-20 16 -20 22q0 4 8 11q170 141 250 301q7 13 14 13q6 0 21 -7l59 -30q19 -10 19 -18q0 -4 -5 -13zM1909 -29q4 -7 4 -12q0 -7 -20 -20
l-56 -33q-19 -12 -27 -12q-7 0 -12 10q-105 198 -233 338q-8 7 -8 12q0 6 18 16l53 31q14 7 18 7q6 0 15 -9q137 -137 248 -328zM1381 -51v-6q0 -12 -25 -19l-65 -18q-19 -6 -25 -6q-9 0 -12 14q-33 160 -106 322q-3 4 -3 8q0 8 27 14l59 14q12 3 17 3q8 0 14 -11
q83 -176 119 -315zM914 -72v-6q0 -12 -27 -16l-65 -8q-15 -2 -20 -2q-13 0 -15 18q-24 220 -52 319q-1 6 -1 8q0 9 26 13l64 8q7 1 12 1q12 0 16 -13q37 -122 62 -322z" />
    <glyph glyph-name="uni9CE5" unicode="&#xe0100;" 
d="M1909 678q0 -18 -17 -18l-291 4h-1052v-146h995l289 4q19 0 19 -12v-4q-5 -27 -15 -123q-35 -347 -98 -432q-59 -82 -168 -82q-88 0 -150 4q-25 2 -30 7q-4 5 -9 30q-13 61 -33 90q104 -16 191 -16q74 0 100 47q25 39 48 166q19 109 28 227h-979l-295 -4q-16 0 -16 16
l4 248v553l-4 244q0 16 16 16l277 -4h75q35 61 62 121q19 44 27 100q66 -10 124 -26q23 -8 23 -21t-16 -27q-23 -16 -33 -38q-45 -91 -55 -109h329l277 4q18 0 18 -16l-4 -170v-224l4 -168q0 -20 -18 -20l-277 4h-706v-141h1052l291 4q17 0 17 -16v-72zM1423 999v156h-874
v-156h874zM1423 1247v150h-874v-150h874zM432 287q-51 -194 -186 -386q-8 -10 -15 -10q-8 0 -28 15l-50 33q-15 10 -15 18q0 4 5 12q138 180 185 355q3 13 11 13q5 0 17 -5l53 -19q24 -9 24 -20q0 -2 -1 -6zM778 -45q1 -6 1 -9q0 -14 -26 -16l-71 -6h-12q-17 0 -17 19
q-3 181 -37 333q-1 6 -1 8q0 11 24 13l59 8q8 1 14 1q13 0 17 -15q35 -145 49 -336zM1143 20q1 -7 1 -10q0 -10 -20 -14l-67 -14q-12 -4 -18 -4q-11 0 -15 17q-35 178 -77 288q-3 6 -3 9q0 7 25 13l55 14q9 3 15 3q9 0 16 -13q51 -116 88 -289zM1462 135q3 -8 3 -12
q0 -7 -19 -14l-60 -21q-11 -3 -17 -3q-9 0 -13 13q-33 116 -92 209q-5 9 -5 13q0 9 21 16l43 14q13 5 19 5q9 0 18 -13q57 -81 102 -207z" />
    <glyph glyph-name="uni9E75" unicode="&#xe0100;" 
d="M1511 289q9 -8 9 -13q0 -8 -13 -22l-39 -41q-18 -18 -24 -18q-5 0 -15 10q-162 159 -364 313q-221 -198 -504 -324q-33 -12 -35 -12q-8 0 -29 27q-20 28 -57 57q298 104 541 316q-191 137 -412 272q-8 5 -8 10q0 7 10 17l39 39q12 11 19 11q5 0 14 -6q209 -130 411 -274
q111 108 191 228q64 96 82 157q51 -22 100 -49q21 -13 21 -29q0 -7 -27 -26q-15 -11 -63 -80q-104 -146 -218 -262q159 -116 371 -301zM1089 866l-35 -39q-13 -15 -19 -15q-5 0 -13 9q-95 95 -183 155q-9 8 -9 11q0 5 11 16l35 35q11 10 17 10q4 0 14 -6q98 -63 183 -147
q8 -9 8 -14t-9 -15zM715 561q7 -6 7 -11q0 -6 -12 -18l-36 -38q-13 -13 -19 -13q-5 0 -14 9q-100 99 -183 149q-9 6 -9 10q0 5 16 19l30 28q13 13 20 13q5 0 13 -4q96 -60 187 -144zM1599 559q7 -8 7 -13q0 -6 -11 -18l-33 -34q-12 -13 -18 -13t-16 10q-87 94 -178 158
q-7 5 -7 10q0 6 8 15l37 35q11 10 17 10q4 0 14 -6q107 -75 180 -154zM1186 209q7 -8 7 -12q0 -7 -14 -21l-32 -33q-15 -14 -23 -14q-4 0 -14 10q-77 86 -164 152q-8 6 -8 12t14 19l33 28q11 10 17 10q5 0 14 -6q84 -60 170 -145zM1836 1413q0 -18 -16 -18l-238 4h-509v-189
h405l289 4q16 0 16 -16l-4 -391v-375l4 -563q0 -17 -16 -17h-91q-16 0 -16 17v102h-1271v-104q0 -15 -16 -15h-91q-16 0 -16 15l4 565v336l-4 430q0 16 16 16l291 -4h377v291q0 151 -14 209q73 -3 134 -12q25 -4 25 -17q0 -14 -12 -39q-10 -25 -10 -139h509l238 4
q16 0 16 -16v-78zM1660 80v1024h-1271v-1024h1271z" />
    <glyph glyph-name="uni9E7F" unicode="&#xe0100;" 
d="M1896 1407q0 -16 -16 -16l-281 4h-294v-203h137l311 4q19 0 19 -16l-5 -155v-126l5 -155q0 -16 -19 -16l-311 4h-1055q-6 -165 -24 -303q-39 -297 -168 -528q-12 -25 -21 -25q-6 0 -28 23q-34 37 -78 57q140 208 180 518q29 224 29 622l-4 393q0 16 16 16l285 -4h415v57
q0 103 -14 156q66 0 131 -10q25 -3 25 -17q0 -8 -13 -37q-8 -24 -8 -94v-55h489l281 4q16 0 16 -16v-82zM754 836v252h-358q0 -96 -4 -252h362zM1653 836v252h-348v-252h348zM1192 836v252h-325v-252h325zM754 1192v203h-358v-203h358zM1192 1192v203h-325v-203h325z
M1901 131q-17 -130 -82 -182q-64 -51 -287 -51q-197 0 -244 18q-75 27 -75 141v400q0 137 -13 207q77 -4 123 -11q27 -3 27 -18q0 -13 -13 -37q-8 -19 -8 -141v-74q214 75 330 147q43 28 68 60q49 -40 83 -78q13 -12 13 -27q0 -13 -21 -16q-25 -3 -51 -14
q-221 -116 -422 -176v-183q0 -45 10 -60q7 -11 29 -19q34 -10 176 -10q157 0 197 37q46 39 51 179q32 -26 80 -43q32 -11 32 -25q0 -5 -3 -24zM1112 202q-8 -41 -8 -71q0 -32 -7 -40q-6 -6 -32 -15q-280 -101 -518 -158q-88 -22 -103 -33q-15 -12 -26 -12t-21 24
q-18 52 -28 111q67 3 166 24q16 2 49 11v442q0 114 -13 178q69 -3 127 -13q23 -3 23 -16t-10 -37q-10 -23 -10 -112v-25h225l152 4q14 0 14 -16v-78q0 -16 -14 -16l-152 4h-225v-289q239 63 411 133z" />
    <glyph glyph-name="uni9EA5" unicode="&#xe0100;" 
d="M1630 9q10 -7 10 -11q0 -6 -12 -22l-41 -57q-13 -20 -22 -20q-5 0 -15 7q-217 146 -448 261q-278 -186 -776 -297q-18 -4 -25 -4q-16 0 -35 37q-14 26 -51 67q463 77 768 256q-139 65 -369 158q-108 -73 -266 -148q-24 -10 -31 -10q-10 0 -24 20q-25 35 -57 58
q356 141 550 368q46 53 60 88q57 -14 113 -33q14 -4 14 -22q0 -11 -19 -21q-21 -10 -53 -49l-10 -10h465q31 0 41 4q15 6 22 6q20 0 60 -35q39 -36 39 -51t-18 -24q-23 -11 -54 -45q-115 -137 -240 -238q229 -111 424 -233zM1337 529h-540q-37 -36 -84 -74q238 -93 381 -159
q146 106 243 233zM1964 697q-28 -28 -47 -78q-15 -37 -30 -37q-8 0 -29 7q-527 155 -793 436q1 -65 6 -153q4 -66 4 -83q0 -16 -16 -16h-99q-16 0 -16 16q0 14 5 97q4 75 5 137q-244 -268 -762 -433q-19 -6 -27 -6q-15 0 -30 31q-24 49 -49 74q582 143 864 461v264h-492
l-276 -4q-16 0 -16 16v78q0 16 16 16l276 -4h492v10q0 125 -14 180q84 -4 131 -13q22 -3 22 -18q0 -10 -8 -27q-12 -24 -12 -116v-16h514l277 4q16 0 16 -16v-78q0 -16 -16 -16l-277 4h-514v-272q184 -183 420 -291q189 -86 475 -154zM1860 1008q-23 -20 -50 -70
q-14 -27 -24 -27q-8 0 -25 10q-178 101 -309 244q-51 -76 -123 -139q-20 -16 -29 -16q-6 0 -22 16q-22 25 -59 47q118 91 188 219q23 43 33 90q51 -14 100 -36q16 -9 16 -21q0 -9 -16 -22q-18 -15 -35 -50q138 -149 355 -245zM784 1079q-24 -20 -51 -51q-18 -24 -26 -24
t-31 16q-82 58 -150 135q-81 -113 -223 -219q-25 -14 -29 -14q-8 0 -26 24q-26 34 -58 53q210 126 297 293q32 58 37 92q62 -18 103 -36q20 -11 20 -21q0 -15 -16 -24q-22 -14 -39 -43l-12 -23q93 -99 204 -158z" />
    <glyph glyph-name="uni9EBB" unicode="&#xe0100;" 
d="M1901 1376q0 -16 -18 -16l-281 4h-1212v-268q0 -317 -8 -454q-7 -118 -27 -255q-38 -259 -166 -481q-15 -27 -25 -27q-7 0 -24 23q-33 44 -74 63q131 180 172 465q31 218 31 680l-4 353q0 16 16 16l283 -4h436v63q0 131 -14 179q85 -4 133 -11q27 -3 27 -14
q0 -10 -13 -35q-12 -21 -12 -116v-66h481l281 4q18 0 18 -16v-87zM1972 227q-38 -25 -65 -67q-16 -23 -23 -23t-24 20q-129 153 -210 296q-76 137 -141 317q2 -367 9 -671q1 -30 4 -167q2 -47 2 -63q0 -14 -17 -14h-96q-16 0 -16 14q0 18 2 134q9 355 12 747
q-113 -336 -324 -600q-14 -21 -22 -21q-4 0 -23 25q-22 27 -69 59q251 267 401 668l-209 -4q-16 0 -16 16v82q0 16 16 16l219 -4h19v123q0 108 -14 168q60 -2 126 -10q23 -3 23 -21q0 -15 -8 -28q-10 -19 -10 -105v-127h116l219 4q17 0 17 -16v-82q0 -16 -17 -16l-221 4h-90
q92 -219 198 -375q94 -139 232 -279zM1108 524q-45 -45 -59 -73q-11 -21 -17 -21q-3 0 -22 22q-98 145 -154 296q1 -357 9 -652q0 -26 4 -163q2 -46 2 -62q0 -14 -17 -14h-98q-16 0 -16 14q0 18 2 132q9 352 12 738q-93 -326 -283 -594q-15 -18 -16 -18q-8 0 -23 21
q-27 37 -69 63q223 268 354 668h-41l-193 -4q-14 0 -14 16v82q0 16 14 16l193 -4h70v127q0 121 -13 170q59 -3 127 -10q23 -3 23 -17q0 -15 -11 -38q-10 -24 -10 -97v-135h13l192 4q18 0 18 -16v-82q0 -16 -18 -16l-190 4q82 -198 231 -357z" />
    <glyph glyph-name="uni9EC3" unicode="&#xe0100;" 
d="M1243 98q-7 6 -7 9q0 7 43 36q45 32 53 32q5 0 12 -5q230 -154 545 -213q-25 -22 -56 -72q-18 -31 -30 -31q-7 0 -25 5q-303 76 -535 239zM146 -43q305 68 469 162q58 33 82 61q81 -42 98 -53q20 -15 20 -27q0 -15 -25 -18q-18 -4 -61 -31q-226 -126 -477 -193
q-18 -4 -24 -4q-13 0 -29 33q-26 48 -53 70zM950 938h-553l-266 -4q-18 0 -18 18v74q0 18 18 18l266 -4h1254l266 4q18 0 18 -18v-74q0 -18 -18 -18l-266 4h-582v-139h287l291 4q18 0 18 -18l-4 -175v-209l4 -174q0 -18 -18 -18l-291 4h-668l-291 -4q-18 0 -18 18l4 174v209
l-4 175q0 18 18 18l291 -4h262v139zM950 305v162h-446v-162h446zM950 707h-446v-150h446v150zM1069 557h469v150h-469v-150zM1069 467v-162h469v162h-469zM762 1491h506v33q0 112 -12 174q74 -4 123 -12q24 -4 24 -17q0 -4 -12 -33q-8 -18 -8 -112v-33h114l289 4
q19 0 19 -18v-72q0 -18 -19 -18l-289 4h-114v-47l4 -181q0 -18 -18 -18l-224 4h-260l-224 -4q-18 0 -18 18l5 181v47h-89l-288 -4q-19 0 -19 18v72q0 18 19 18l288 -4h89v33q0 112 -13 174q78 -4 123 -12q25 -4 25 -17q0 -4 -12 -33q-9 -18 -9 -108v-37zM762 1391v-150h506
v150h-506z" />
    <glyph glyph-name="uni9ECD" unicode="&#xe0100;" 
d="M1950 875q-35 -28 -57 -74q-19 -35 -31 -35q-7 0 -29 7q-450 143 -768 419q1 -48 6 -126q4 -58 4 -72q0 -17 -16 -17h-94q-17 0 -17 17q0 12 5 86q5 66 6 112q-283 -265 -744 -423q-19 -7 -27 -7q-11 0 -30 35t-53 66q465 123 753 358h-383l-278 -4q-17 0 -17 16v78
q0 14 17 14l278 -4h478v170q-321 -28 -506 -37q-14 -1 -21 -1q-17 0 -24 8q-5 5 -15 28q-11 30 -45 67q292 8 647 41q194 18 414 62q67 13 137 43q72 -42 109 -76q14 -14 14 -29q0 -20 -41 -20q-40 0 -121 -14q-219 -41 -430 -62v-180h498l279 4q16 0 16 -14v-78
q0 -16 -16 -16l-279 4h-410q180 -132 383 -214q153 -63 408 -132zM1985 500q-33 -25 -62 -82q-15 -31 -28 -31q-6 0 -31 6q-599 182 -852 441q-322 -288 -819 -449q-24 -8 -31 -8q-12 0 -29 31q-25 46 -59 69q509 135 834 408q49 40 67 82l121 -31q16 -3 16 -16
q0 -10 -12 -15q-12 -6 -14 -8q147 -141 411 -250q220 -91 488 -147zM1099 666q0 -15 -13 -39q-10 -26 -10 -138v-198l2 -261q0 -101 -57 -135q-57 -35 -192 -35h-26q-31 0 -40 7q-8 7 -15 34q-11 43 -39 85q67 -10 127 -10q22 0 45 1q76 4 76 78v437q0 147 -14 202
q61 -2 129 -12q27 -3 27 -16zM1819 41q-33 -30 -55 -72q-17 -32 -26 -32q-5 0 -30 8q-328 100 -526 235q-9 7 -9 10q0 4 17 23l35 41q9 12 16 12q5 0 15 -6q226 -145 563 -219zM842 213q6 -24 6 -30q0 -15 -34 -31q-176 -86 -396 -160q-52 -18 -72 -33q-19 -14 -24 -14
q-11 0 -23 20q-26 53 -47 105q82 14 141 32q259 81 443 177q-1 -7 -1 -13q0 -20 7 -53zM1499 471q0 -12 -20 -16q-24 -6 -47 -27q-66 -55 -170 -121q-22 -12 -29 -12q-8 0 -26 24q-15 17 -56 50q112 54 189 125q26 21 59 65q41 -29 82 -63q18 -16 18 -25zM848 391
q10 -8 10 -14t-14 -23l-35 -39q-15 -16 -23 -16q-5 0 -14 8q-105 99 -223 158q-8 4 -8 8q0 5 16 21l37 38q10 13 17 13q4 0 12 -4q112 -55 225 -150z" />
    <glyph glyph-name="uni9ED2" unicode="&#xe0100;" 
d="M1915 348q0 -16 -17 -16l-266 4h-1230l-267 -4q-16 0 -16 16v80q0 16 16 16l267 -4h544v181h-366l-287 -4q-16 0 -16 16v78q0 16 16 16l287 -4h366v166h-272l-291 -4q-16 0 -16 16l4 195v292l-4 195q0 16 16 16l291 -4h688l291 4q16 0 16 -16l-4 -195v-292l4 -195
q0 -16 -16 -16l-291 4h-297v-166h403l285 4q16 0 16 -16v-78q0 -16 -16 -16l-285 4h-403v-181h567l266 4q17 0 17 -16v-80zM1546 987v211h-481v-211h481zM1546 1294v201h-481v-201h481zM946 987v211h-456v-211h456zM946 1294v201h-456v-201h456zM510 211
q-101 -183 -252 -310q-8 -7 -14 -7t-21 12l-61 45q-15 11 -15 18q0 5 8 13q150 104 246 281q5 9 11 9t22 -8l62 -28q17 -9 17 -16q0 -4 -3 -9zM1868 -25q4 -8 4 -12q0 -7 -18 -18l-56 -31q-19 -11 -25 -11t-12 9q-109 185 -231 307q-7 7 -7 12q0 7 19 17l51 26q14 8 20 8
t15 -8q133 -130 240 -299zM1346 -39q1 -5 1 -8q0 -8 -24 -16l-65 -19q-12 -3 -18 -3q-9 0 -13 13q-41 160 -107 283q-3 6 -3 9q0 7 26 13l53 15q12 3 18 3q9 0 17 -13q72 -125 115 -277zM889 -57q1 -4 1 -6q0 -12 -28 -17l-63 -10q-15 -2 -20 -2q-11 0 -13 16
q-12 154 -51 285q-2 6 -2 9q0 9 28 13l56 9q12 2 17 2q8 0 13 -13q41 -121 62 -286z" />
    <glyph glyph-name="uni9EF9" unicode="&#xe0100;" 
d="M1954 901q-33 -30 -49 -59q-17 -29 -29 -29q-5 0 -32 11l-80 30q-4 -74 -4 -200v-298l2 -311q0 -94 -47 -133q-46 -37 -252 -37q-32 0 -38 6q-6 5 -13 33q-13 45 -37 84q102 -10 176 -10q53 0 72 19q16 17 16 59v729h-569v-594l4 -303q0 -17 -17 -17h-94q-16 0 -16 17
l4 303v594h-532v-689l4 -235q0 -16 -17 -16h-96q-16 0 -16 16l4 233v554l-2 198q-9 -5 -90 -43q-24 -10 -31 -10q-9 0 -27 27q-16 28 -51 55q262 99 414 238q40 38 63 78q53 -29 82 -51q21 -16 21 -29q0 -15 -19 -21t-49 -31q-102 -92 -231 -168q45 -2 225 -2h348v306h-526
l-271 -4q-16 0 -16 16v80q0 16 16 16l271 -4h360v199q0 131 -15 184q73 -4 127 -10q21 -4 21 -19q0 -13 -8 -26q-12 -22 -12 -129v-199h221v199q0 131 -15 184q73 -4 127 -10q21 -4 21 -19q0 -13 -8 -26q-12 -22 -12 -129v-199h167q74 98 135 221q22 46 33 100
q71 -16 121 -36q23 -8 23 -21q0 -12 -23 -29q-18 -12 -33 -40q-68 -117 -131 -195h109l268 4q16 0 16 -16v-80q0 -16 -16 -16l-268 4h-563v-306h595q-177 89 -321 228q-7 7 -7 12q0 6 20 19l46 28q11 7 17 7t14 -9q198 -180 520 -283zM779 637q0 -4 -11 -25q-10 -20 -10 -57
q0 -171 -36 -289q-34 -107 -107 -204q-19 -23 -27 -23q-7 0 -26 16q-32 23 -70 37q95 110 127 225q27 92 27 234q0 87 -9 117q69 -3 115 -11q27 -3 27 -20zM1430 637q0 -11 -10 -29q-11 -18 -11 -147v-144l5 -174q0 -16 -19 -16h-84q-16 0 -16 16l4 174v144q0 153 -12 205
q61 -3 120 -11q23 -4 23 -18zM596 1413q5 -7 5 -12q0 -9 -21 -19l-55 -26q-18 -9 -24 -9t-13 13q-60 118 -137 207q-7 7 -7 11q0 7 17 15l55 27q13 6 18 6t13 -8q77 -77 149 -205z" />
    <glyph glyph-name="uni9EFD" unicode="&#xe0100;" 
d="M1955 209q-21 -193 -113 -250q-103 -65 -461 -65q-381 0 -469 29q-63 22 -88 65q-27 49 -27 145v113h-438q1 -34 3 -66q1 -21 1 -24q0 -17 -16 -17h-93q-16 0 -16 17l4 210v382l-4 213q0 18 16 18l207 -4h336v178h-160l-289 -4q-16 0 -16 16l4 139v124l-4 137q0 16 16 16
l289 -4h778l292 4q16 0 16 -16l-4 -137v-124l4 -139q0 -16 -16 -16l-292 4h-184v-178h350l208 4q16 0 16 -18l-4 -205v-289l4 -205q0 -16 -16 -16l-208 4h-350q1 -56 3 -107q1 -33 1 -34q0 -17 -16 -17h-91q-16 0 -16 17l4 325v1047h-204v-1327q0 -71 19 -101q18 -26 61 -35
q79 -18 380 -18q310 0 384 47q49 29 67 94q13 47 21 160q41 -31 78 -43q34 -12 34 -30q0 -6 -1 -19zM1684 350v218h-453v-218h453zM797 346v220h-438v-220h438zM1684 664v211h-453v-211h453zM797 664v211h-438v-211h438zM1602 1249v232h-371v-232h371zM797 1249v232h-346
v-232h346z" />
    <glyph glyph-name="uni9F0E" unicode="&#xe0100;" 
d="M1450 866q0 -16 -16 -16l-244 4h-327l-246 -4q-16 0 -16 16l4 206v333l-4 205q0 16 16 16l246 -4h327l244 4q16 0 16 -16l-4 -205v-333zM1331 944v144h-611v-144h611zM1331 1397v133h-611v-133h611zM1331 1176v133h-611v-133h611zM896 -129q0 -17 -16 -17h-93
q-16 0 -16 17l4 278v209h-244q-14 -190 -89 -304q-64 -97 -194 -176q-23 -14 -33 -14q-11 0 -30 23q-36 35 -74 51q164 78 228 173q62 90 73 247h-37l-248 -4q-16 0 -16 16v76q0 16 16 16l248 -4h400v171h-332l-187 -4q-16 0 -16 16l4 192v408q0 154 -14 225q72 -3 131 -12
q25 -3 25 -16q0 -11 -13 -43q-10 -29 -10 -152v-510h330l187 4q16 0 16 -18l-4 -220v-364zM1934 370q0 -16 -17 -16q-4 0 -28 1q-83 2 -183 3v-260l4 -227q0 -17 -16 -17h-93q-16 0 -16 17l4 227v260h-327v-209l4 -278q0 -17 -16 -17h-95q-16 0 -16 17l4 264v364l-4 220
q0 18 16 18l195 -4h352v512q0 152 -12 225q68 -3 131 -12q27 -4 27 -18q0 -8 -12 -41q-13 -27 -13 -154v-410l4 -192q0 -16 -16 -16l-195 4h-354v-173h409l246 4q17 0 17 -16v-76z" />
    <glyph glyph-name="uni9F13" unicode="&#xe0100;" 
d="M2005 -22q-29 -26 -53 -77q-14 -29 -24 -29q-7 0 -31 10q-262 136 -426 317q-191 -181 -515 -330l-32 -12q-10 0 -27 29q-22 39 -61 72q356 138 559 336q-158 217 -248 530l-102 -2q-17 0 -17 16v80q0 16 17 16l241 -4h111v317h-111l-260 -4q-16 0 -16 16v84q0 10 2 14
h-6l-246 5h-117v-195h86l227 4q17 0 17 -16v-76q0 -14 -17 -14l-227 2h-289l-229 -2q-17 0 -17 14v76q0 16 17 16l229 -4h86v195h-135l-248 -5q-16 0 -16 17v78q0 16 16 16l248 -4h135v6q0 148 -14 217q74 -3 129 -12q27 -3 27 -17q0 -10 -12 -38q-13 -31 -13 -129v-27h117
l246 4q16 0 16 -16v-78q0 -12 -4 -15h8l260 -4h111v78q0 189 -14 256q75 -3 133 -12q23 -3 23 -19q0 -10 -13 -43q-10 -28 -10 -180v-80h176l260 4q15 0 15 -16v-84q0 -16 -15 -16l-260 4h-176v-317h215q25 0 39 8q9 6 16 6q12 0 49 -35q41 -41 41 -55q0 -11 -16 -24
q-18 -12 -33 -55q-118 -306 -276 -490q172 -184 454 -307zM1719 826h-459q79 -271 215 -451q151 180 244 451zM934 535q0 -16 -16 -16l-216 4h-241l-216 -4q-16 0 -16 16l4 131v115l-4 131q0 16 16 16l216 -4h241l216 4q16 0 16 -16l-4 -131v-115zM817 621v205h-469v-205
h469zM995 262q-4 -22 -8 -68q0 -33 -5 -40q-5 -6 -32 -15q-244 -78 -671 -174q-52 -13 -68 -23q-21 -10 -25 -10q-13 0 -22 20q-20 56 -37 116q97 7 193 24q146 26 296 62q46 109 74 198q16 49 23 113q64 -13 113 -33q16 -8 16 -20q0 -11 -14 -25t-31 -59q-52 -127 -60 -144
q162 44 258 78zM494 223q1 -6 1 -9q0 -9 -20 -17l-51 -21q-20 -8 -25 -8q-7 0 -12 14q-35 121 -88 215q-3 6 -3 10q0 7 21 15l52 18q15 5 18 5q6 0 12 -9q55 -94 95 -213z" />
    <glyph glyph-name="uni9F20" unicode="&#xe0100;" 
d="M1750 903q0 -16 -16 -16l-293 4h-833l-291 -4q-16 0 -16 16l4 203v234q0 159 -12 233q47 -7 115 -35q212 39 339 88q70 28 96 47q46 -29 91 -70q14 -11 14 -24q0 -16 -27 -19q-37 -3 -75 -14q-211 -65 -422 -102v-160h254l215 4q16 0 16 -18v-72q0 -16 -16 -16l-215 4
h-254v-195h1203v195h-278l-223 -4q-17 0 -17 16v72q0 18 17 18l223 -4h278v189h-272l-229 -4q-17 0 -17 16v75q0 17 17 17l229 -4h178l201 4q16 0 16 -16l-4 -187v-280zM1542 184q-6 -37 -6 -73q0 -31 -5 -37t-30 -15q-212 -72 -535 -155q-69 -19 -78 -25q-20 -12 -28 -12
q-14 0 -23 25q-16 47 -28 108q86 7 145 18v533q0 179 -14 262q61 -2 129 -12q25 -3 25 -19q0 -12 -13 -41q-10 -28 -10 -190v-506q273 62 471 139zM845 180q-8 -45 -8 -74q0 -28 -7 -35q-5 -6 -30 -14q-262 -84 -539 -147q-70 -16 -80 -23q-15 -12 -28 -12q-11 0 -19 25
q-15 46 -28 112q78 4 147 17q27 4 84 16v506q0 179 -14 262q59 -2 131 -12q25 -4 25 -19q0 -7 -15 -41q-8 -22 -8 -190v-481q228 55 389 110zM1994 182q-22 -173 -64 -244q-35 -61 -91 -61q-118 0 -189 240q-58 178 -74 458q-7 156 -18 240q35 -1 127 -10q25 -3 25 -19
q0 -10 -12 -43q-8 -16 -8 -69q0 -38 4 -96q12 -256 65 -416q44 -135 88 -135q46 0 61 268q28 -31 62 -53q26 -21 26 -37q0 -4 -2 -23zM1468 297q7 -6 7 -11t-9 -18l-31 -39q-15 -18 -22 -18q-4 0 -13 6q-115 94 -250 162q-8 4 -8 9q0 6 13 20l30 36q12 16 19 16q5 0 12 -3
q124 -61 252 -160zM1484 555l-32 -41q-13 -16 -20 -16q-5 0 -13 8q-105 91 -246 162q-9 3 -9 8t13 20l31 35q12 13 17 13t14 -4q124 -59 246 -156q9 -8 9 -13t-10 -16zM831 291l-39 -43q-11 -13 -18 -13q-6 0 -15 9q-91 83 -221 155q-9 5 -9 11q0 5 13 20l31 37q10 12 17 12
q5 0 16 -6q117 -63 225 -154q8 -8 8 -13t-8 -15zM851 608q9 -7 9 -12q0 -6 -11 -18l-32 -39q-15 -17 -21 -17q-5 0 -12 6q-99 91 -225 158q-8 4 -8 8q0 5 14 21l28 33q14 14 19 14q4 0 12 -4q124 -65 227 -150z" />
    <glyph glyph-name="uni9F3B" unicode="&#xe0100;" 
d="M1925 159q0 -16 -15 -16l-268 4h-260v-65l4 -207q0 -17 -16 -17h-90q-17 0 -17 17l4 207v65h-503q-103 -237 -447 -297q-22 -4 -30 -4q-16 0 -37 31q-30 40 -60 59q198 20 306 74q100 50 147 137h-219l-267 -4q-16 0 -16 16v70q0 14 16 14l267 -2h254q14 65 14 124h-90
l-291 -4q-14 0 -14 16l2 149v142l-2 147q0 16 14 16l291 -4h854l293 4q16 0 16 -16l-4 -147v-142l4 -149q0 -16 -16 -16l-293 4h-74v-124h260l268 2q15 0 15 -14v-70zM1646 441v122h-575v-122h575zM960 441v122h-547v-122h547zM1646 637v112h-575v-112h575zM960 637v112
h-547v-112h547zM1267 241v124h-458q-3 -62 -17 -124h475zM1564 935q0 -16 -16 -16l-273 4h-495l-273 -4q-14 0 -14 16l2 181v244l-2 180q0 16 14 16l273 -4h82q32 53 53 106q14 37 18 66q70 -11 115 -20q23 -6 23 -21q0 -9 -19 -22q-14 -12 -33 -43q-7 -15 -37 -66h293
l273 4q16 0 16 -16l-4 -180v-244zM1445 1001v115h-835v-115h835zM1445 1366v108h-835v-108h835zM1445 1188v106h-835v-106h835z" />
    <glyph glyph-name="uni9F4A" unicode="&#xe0100;" 
d="M1605 710q0 -7 -4 -19q-5 -14 -6 -20q-10 -40 -10 -202v-369l4 -231q0 -17 -16 -17h-95q-16 0 -16 17l4 231v121h-915q-3 -10 -19 -53q-72 -172 -248 -306q-22 -16 -30 -16q-6 0 -35 23q-38 28 -82 45q206 125 289 323q46 110 50 322v32q0 64 -11 140q57 -3 118 -10
q31 -7 31 -21q0 -1 -10 -37q-2 -7 -6 -55h866q-2 60 -12 131q70 -3 131 -12q22 -4 22 -17zM1466 327v175h-872q-3 -91 -19 -175h891zM1921 1417q0 -16 -17 -16l-268 4h-1221l-266 -4q-18 0 -18 16v82q0 16 18 16l266 -4h527v57q0 84 -15 142q41 -2 135 -10q25 -4 25 -17
q0 -8 -12 -37q-10 -23 -10 -80v-55h571l268 4q17 0 17 -16v-82zM1964 846q-24 -21 -50 -67q-19 -31 -28 -31q-8 0 -29 12q-141 77 -217 181q-68 91 -113 239q-85 -20 -143 -29v-254q133 26 215 53q-4 -14 -8 -51q0 -32 -6 -38t-35 -13q-60 -18 -264 -66q-48 -12 -63 -27
q-17 -12 -25 -12q-12 0 -18 20q-15 41 -33 101q56 3 135 15v194q0 129 -12 182q63 -6 110 -18q185 40 315 96q32 16 56 37q38 -27 78 -63q12 -13 12 -21q0 -13 -25 -16q-17 -2 -61 -17q-78 -30 -140 -49q52 -152 137 -234q77 -76 212 -124zM782 1254q-2 -28 -6 -134
q-8 -194 -33 -260q-27 -74 -113 -84q-34 -4 -100 -4q-30 2 -36 9q-5 5 -9 32q-5 35 -25 70q64 -13 117 -13t68 45q24 86 24 263h-170q-16 -177 -96 -287q-66 -91 -199 -166q-17 -10 -24 -10q-11 0 -27 25q-26 38 -49 57q154 76 215 158q61 84 74 223h-19l-192 -4
q-17 0 -17 16v66q0 16 17 16l192 -4h197l193 4q18 0 18 -18zM1280 1315q0 -14 -21 -23q-16 -8 -34 -32q-100 -132 -160 -201v-168l4 -141q0 -17 -19 -17h-84q-16 0 -16 17l4 141v61q0 120 -14 187q43 -3 69 -9q64 73 117 162q30 53 39 88q63 -22 99 -45q16 -10 16 -20z
M974 1225q6 -8 6 -14q0 -7 -12 -15l-45 -33q-14 -10 -18 -10t-10 11q-54 87 -125 149q-8 6 -8 10q0 6 18 18l35 21q12 7 18 7q7 0 16 -9q77 -67 125 -135z" />
    <glyph glyph-name="uni9F52" unicode="&#xe0100;" 
d="M1609 193q-28 -25 -45 -56q-17 -28 -24 -28q-8 0 -29 12q-143 83 -231 184q-63 -102 -160 -186q-24 -21 -31 -21q-10 0 -29 18q-25 23 -61 40q180 123 235 284q14 41 17 84q42 -8 98 -26q23 -8 23 -17q0 -12 -12 -24q-19 -19 -37 -68q105 -119 286 -196zM1011 233
q-19 -14 -47 -53q-15 -26 -24 -26q-6 0 -29 16q-109 77 -170 143q-65 -104 -174 -191q-25 -18 -35 -18q-7 0 -29 19q-25 25 -59 41q186 119 250 270q14 35 20 82q63 -12 97 -27q22 -6 22 -18q0 -13 -14 -25q-13 -12 -31 -49q92 -103 223 -164zM1812 964q0 -10 -13 -39
q-10 -25 -10 -149v-581l4 -326q0 -15 -16 -15h-93q-16 0 -16 15v98h-1291v-90q0 -19 -16 -19h-93q-16 0 -16 19l4 318v587q0 153 -14 217q73 -3 133 -12q22 -3 22 -17q0 -10 -12 -38q-8 -25 -8 -150v-133h1291v127q0 151 -12 217q75 -3 133 -12q23 -3 23 -17zM1668 76v475
h-1291v-475h1291zM1908 1127q0 -16 -17 -16l-270 4h-1188l-270 -4q-16 0 -16 16v82q0 16 16 16l270 -4h72v145q0 162 -16 223q76 -3 135 -12q26 -4 26 -19q0 -4 -12 -37q-12 -27 -12 -141v-159h346v266q0 163 -14 223q73 -3 134 -12q25 -4 25 -17q0 -8 -12 -37
q-10 -23 -10 -139h346l250 4q14 0 14 -16v-78q0 -16 -14 -16l-250 4h-346v-182h526l270 4q17 0 17 -16v-82zM1591 763q-24 -23 -45 -57q-17 -29 -27 -29q-2 0 -26 12q-135 75 -228 181q-61 -97 -160 -179q-21 -18 -30 -18q-5 0 -25 16q-34 30 -59 44q171 111 231 272
q16 47 21 84q55 -10 96 -24q22 -12 22 -19q0 -12 -12 -24q-17 -17 -39 -68q102 -118 281 -191zM1007 811q-26 -23 -49 -56q-19 -22 -25 -22q-5 0 -28 16q-92 65 -162 135q-71 -105 -176 -186q-25 -18 -33 -18q-10 0 -31 20q-33 29 -57 39q179 120 242 252q24 53 30 100
q51 -11 94 -26q25 -7 25 -19t-12 -24q-22 -22 -37 -58q91 -94 219 -153z" />
    <glyph glyph-name="uni9F8D" unicode="&#xe0100;" 
d="M1971 111q-15 -105 -59 -150q-37 -36 -113 -49q-85 -14 -268 -14q-282 0 -349 35q-65 32 -65 149v656l-4 239q0 16 16 16l207 -4h387v156h-385l-207 -4q-14 0 -14 18l4 176v199q0 96 -14 152q74 -4 124 -11q27 -3 27 -14q0 -10 -12 -35q-10 -23 -10 -76v-57h385l225 4
q16 0 16 -18v-72q0 -16 -16 -16l-225 4h-385v-154h383l205 4q16 0 16 -16l-4 -115v-92l4 -117q0 -16 -16 -16l-207 4h-385v-137h348l209 4q16 0 16 -16v-64q0 -16 -16 -16l-209 2h-348v-142h344l211 4q16 0 16 -14v-66q0 -16 -16 -16l-211 4h-344v-143h350l207 4
q16 0 16 -16v-66q0 -16 -16 -16l-207 4h-350v-90q0 -76 34 -93q50 -18 267 -18q165 0 232 15q46 9 67 32q32 35 34 160q30 -22 70 -41q38 -16 38 -34q0 -7 -3 -23zM910 871l-4 -250v-296l2 -266q0 -101 -43 -133q-48 -35 -205 -35q-31 0 -37 6q-5 5 -12 33q-9 40 -35 76
q74 -6 131 -6q53 0 71 18q15 16 15 54v196h-422v-137l4 -240q0 -16 -17 -16h-88q-18 0 -18 16l4 236v506l-4 238q0 16 18 16l203 -4h217l204 4q16 0 16 -16zM793 362v171h-422v-171h422zM793 627v158h-422v-158h422zM1020 1036q0 -16 -16 -16l-252 4h-377l-252 -4
q-14 0 -14 16v70q0 16 14 16l250 -4q-24 94 -65 190q-3 5 -3 9q0 8 19 14l47 14q12 3 18 3q9 0 15 -14q43 -94 72 -216h188q35 67 61 143q15 38 21 88q53 -12 100 -28q23 -9 23 -21q0 -10 -18 -25q-9 -7 -31 -55q-35 -73 -52 -102l236 4q16 0 16 -16v-70zM973 1405
q0 -16 -16 -16l-232 4h-305l-233 -4q-17 0 -17 16v70q0 16 17 16l233 -4h109v56q0 91 -14 151q56 -2 130 -10q23 -3 23 -17q0 -7 -12 -36q-10 -23 -10 -88v-56h79l232 4q16 0 16 -16v-70z" />
    <glyph glyph-name="uni9F9C" unicode="&#xe0100;" 
d="M1659 645q0 -12 -13 -18q-15 -7 -32 -31q-33 -53 -68 -90q44 -39 97 -94q7 -7 7 -12q0 -6 -16 -21l-24 -25q-12 -11 -16 -11q-3 0 -11 9q-45 55 -88 94q-69 -69 -135 -117q-19 -12 -25 -12t-22 17q-19 18 -52 31q104 61 175 135q-41 33 -118 88q-8 6 -8 10q0 5 11 16
l20 23q9 9 15 9q4 0 14 -7q76 -52 115 -82q32 42 45 61q29 44 41 82q36 -14 73 -36q15 -9 15 -19zM1974 141q-10 -92 -36 -139q-24 -41 -73 -70q-103 -61 -466 -61q-385 0 -463 20q-67 21 -90 67q-22 44 -22 138v97h-138v-25l5 -148q0 -16 -17 -16l-162 4h-139l-135 -4
q-17 0 -17 16v62q0 14 17 14l135 -4h207v103h-127l-297 -4q-16 0 -16 16v62q0 16 16 16l297 -4h127v96h-191l-149 -4q-17 0 -17 16v60q0 16 17 16l149 -4h123l162 4q17 0 17 -16l-5 -148v-18h138v448h-138v-20l5 -144q0 -16 -17 -16l-162 4h-139l-135 -4q-17 0 -17 16v60
q0 16 17 16l135 -4h207v94h-121l-295 -4q-14 0 -14 16v62q0 16 14 16l295 -4h121v88h-191l-149 -4q-17 0 -17 16v58q0 18 17 18l149 -4h123l162 4q17 0 17 -18l-5 -142v-14h138v258h-154l-315 -4q-16 0 -16 18l3 111v105q-34 -21 -116 -64q-24 -10 -31 -10q-9 0 -25 18
q-18 24 -53 49q186 86 297 169q79 60 172 161q45 51 68 103q53 -17 94 -35q21 -11 21 -25q0 -13 -21 -24q-19 -10 -51 -48l-17 -18h455q28 0 40 6q13 6 19 6q15 0 55 -33q41 -33 41 -47q0 -13 -21 -24q-22 -13 -53 -54q-27 -35 -63 -71h578q16 0 16 -16v-193l4 -113
q0 -16 -16 -16l-310 4h-196v-213h299l290 4q17 0 17 -16l-5 -188v-228l5 -188q0 -16 -17 -16l-290 4h-299q1 -49 2 -97q2 -31 2 -33q0 -16 -17 -16h-79q-16 0 -16 16l2 130h-195v-72q0 -76 19 -104q15 -22 59 -34q53 -12 374 -12q327 0 399 43q50 30 66 79q13 38 20 139
q35 -28 78 -41q32 -11 33 -31q0 -6 -2 -19zM1725 283v448h-496v-448h496zM1125 283v448h-197v-448h197zM1125 821v465h-197v-465h197zM1131 1501h-529q-73 -74 -166 -133h584q63 60 111 133zM1636 1118v168h-407v-168h407zM824 1159v127h-371v-127h371z" />
    <glyph glyph-name="uni9FA0" unicode="&#xe0100;" 
d="M1712 582l-4 -199v-94l2 -262q0 -94 -45 -125q-44 -30 -186 -33q-32 0 -39 6q-6 6 -15 35q-10 43 -28 74q71 -6 127 -6q40 0 55 18q12 17 12 55v160h-321v-98l4 -195q0 -16 -16 -16h-84q-17 0 -17 16l4 195v98h-305v-98l4 -195q0 -16 -16 -16h-84q-16 0 -16 16l4 195v98
h-295v-145l4 -197q0 -16 -17 -16h-92q-16 0 -16 16l4 197v315l-4 201q0 16 16 16l293 -4h762l293 4q16 0 16 -16zM1591 305v191h-321v-191h321zM1161 305v191h-305v-191h305zM748 305v191h-295v-191h295zM1985 1257q-41 -34 -60 -82q-13 -31 -26 -31q-8 0 -31 7
q-588 176 -862 442q-299 -279 -813 -455q-24 -8 -32 -8q-14 0 -34 33q-23 38 -51 64q509 156 801 407q52 46 84 103q65 -14 124 -31q27 -9 27 -23q0 -12 -12 -18l-14 -6q316 -273 899 -402zM1806 725q0 -16 -16 -16l-147 4h-125l-152 -4q-16 0 -16 16l4 129v101l-4 126
q0 16 16 16l152 -4h125l147 4q16 0 16 -16l-4 -126v-101zM1704 799v209h-254v-209h254zM684 725q0 -16 -16 -16l-147 4h-120l-145 -4q-18 0 -18 16l4 129v101l-4 126q0 16 18 16l145 -4h120l147 4q16 0 16 -16l-4 -126v-101zM582 799v209h-244v-209h244zM1239 725
q0 -16 -16 -16l-148 4h-118l-148 -4q-16 0 -16 16l4 129v101l-4 126q0 16 16 16l148 -4h118l148 4q16 0 16 -16l-4 -126v-101zM1137 799v209h-244v-209h244zM1397 1233q0 -16 -16 -16l-228 4h-278l-228 -4q-16 0 -16 16v74q0 16 16 16l228 -4h278l228 4q16 0 16 -16v-74z
" />
    <glyph glyph-name="uni304C" unicode="&#x304b;&#x3099;" horiz-adv-x="1712" 
d="M641 1106q-156 -651 -387 -1147l-135 53q230 480 375 1084q-124 -9 -377 -33l-8 129q75 5 222 14q135 9 192 13q38 173 78 407l145 -20q-45 -234 -78 -379q115 8 209 8q131 0 187 -83q59 -87 59 -290q0 -513 -64 -727q-30 -103 -93 -147q-58 -41 -157 -41q-105 0 -208 16
l-25 143q112 -24 182 -24q75 0 109 21q32 21 49 71q65 200 65 668q0 170 -32 225q-27 47 -99 47q-94 0 -209 -8zM1242 1690l104 41q59 -104 152 -347l-111 -45q-73 220 -145 351zM1461 1759l102 37q78 -130 145 -336l-106 -43q-65 203 -141 342zM1123 1343l129 66
q205 -270 352 -707l-143 -67q-132 445 -338 708z" />
    <glyph glyph-name="uni304E" unicode="&#x304d;&#x3099;" horiz-adv-x="1661" 
d="M869 1286q46 -135 100 -244q215 31 381 70l25 -123q-162 -34 -349 -63q133 -245 304 -418l-84 -131q-247 125 -535 125q-186 0 -293 -65q-94 -57 -94 -148q0 -119 161 -177q134 -49 365 -49q120 0 289 13v-144q-90 -6 -295 -6q-665 0 -665 346q0 172 156 263
q144 83 401 83q237 0 417 -90q-151 157 -268 379q-321 -41 -635 -41l-20 125q279 -3 598 33q-65 149 -101 246q-250 -27 -555 -33l-18 129q287 0 532 23q-51 153 -77 239l147 14q40 -146 70 -237q159 20 350 55l20 -125q-177 -31 -327 -49zM1178 1669l104 41
q60 -103 152 -346l-111 -45q-73 220 -145 350zM1407 1739l103 37q78 -130 145 -336l-106 -43q-66 203 -142 342z" />
    <glyph glyph-name="uni3050" unicode="&#x304f;&#x3099;" horiz-adv-x="1346" 
d="M829 1147l101 51q70 -100 184 -332l-107 -55q-90 211 -178 336zM1044 1243l99 45q93 -126 176 -319l-103 -54q-85 200 -172 328zM887 1618l131 -90q-310 -359 -641 -674q-39 -36 -39 -70q0 -33 55 -75q352 -287 717 -689l-127 -106q-327 382 -735 741q-68 58 -68 123
q0 68 53 121q342 339 654 719z" />
    <glyph glyph-name="uni3052" unicode="&#x3051;&#x3099;" horiz-adv-x="1690" 
d="M1253 1239q110 10 252 29l6 -131q-113 -15 -258 -25q2 -102 2 -311q0 -447 -111 -626q-90 -145 -347 -261l-97 109q174 72 260 161q88 92 122 241q30 133 30 380q0 199 -2 297q-349 -13 -524 -6l-2 129q245 -6 526 4q-4 233 -8 360h147q0 -121 4 -350zM1251 1720l101 33
q53 -113 125 -358l-109 -35q-53 216 -117 360zM414 1602q-40 -226 -69 -519q-28 -279 -28 -460q0 -302 74 -609l-145 -12q-72 367 -72 625q0 198 38 551q27 248 56 436zM1466 1772l103 28q70 -137 118 -346l-106 -35q-51 213 -115 353z" />
    <glyph glyph-name="uni3054" unicode="&#x3053;&#x3099;" horiz-adv-x="1485" 
d="M1011 1686l105 40q59 -103 151 -346l-110 -45q-73 220 -146 351zM223 623l133 -41q-78 -114 -78 -267q0 -233 420 -233q262 0 520 29l2 -154q-240 -16 -524 -16t-420 91q-139 94 -139 287q0 166 86 304zM1231 1755l102 37q78 -130 145 -336l-106 -43q-65 203 -141 342z
M250 1489q127 -6 366 -6q105 0 363 12l76 -184q-179 -96 -414 -273l-92 103q44 31 352 223q-126 -16 -330 -16q-125 0 -321 8v133z" />
    <glyph glyph-name="uni3056" unicode="&#x3055;&#x3099;" horiz-adv-x="1534" 
d="M817 1290q170 20 364 60q-70 208 -137 327l105 41q59 -103 151 -346l-92 -37l14 -110q-148 -30 -352 -58q150 -330 395 -594l-88 -127q-235 140 -493 140q-195 0 -303 -88q-88 -72 -88 -176q0 -263 516 -263q154 0 274 21l2 -143q-127 -17 -278 -17q-319 0 -480 88
q-178 97 -178 307t190 315q140 77 339 77q267 0 395 -80q-206 205 -350 524q-243 -25 -574 -35l-8 131q241 0 530 27q-64 166 -114 354l151 19q42 -181 109 -357zM1274 1747l102 37q78 -130 145 -336l-106 -43q-65 203 -141 342z" />
    </font>
</defs>
</svg>
