<?xml version="1.0" standalone="no"?>
<!DOCTYPE svg PUBLIC "-//W3C//DTD SVG 1.1//EN" "http://www.w3.org/Graphics/SVG/1.1/DTD/svg11.dtd" >
<svg xmlns="http://www.w3.org/2000/svg" xmlns:xlink="http://www.w3.org/1999/xlink" version="1.1">
<metadata>
Created by FontForge 20201107 at Tue Apr 23 16:58:37 2019
 By 
Copyright (c) 2019 JIYUKOBO Ltd. All Rights Reserved.
</metadata>
<defs>
<font id="YuGothicUI-Bold" horiz-adv-x="2048" vert-adv-y="2048" >
  <font-face 
    font-family="Yu Gothic UI"
    font-weight="700"
    font-stretch="normal"
    units-per-em="2048"
    panose-1="2 11 7 0 0 0 0 0 0 0"
    ascent="1638"
    descent="-410"
    x-height="1024"
    cap-height="1434"
    bbox="-2048 -637 2439 2675"
    underline-thickness="104"
    underline-position="-257"
    unicode-range="U+0020-2F9F4"
  />
<missing-glyph horiz-adv-x="748" 
d="M68 0v1365h544v-1365h-544zM136 68h408v1229h-408v-1229z" />
    <glyph glyph-name="aeacute" unicode="&#xe6;&#x301;" horiz-adv-x="1896" 
d="M860 219q-160 -250 -416 -250q-168 0 -264 102q-84 90 -84 232q0 300 369 371q136 26 321 33v63q0 112 -53 159q-46 40 -142 40q-89 0 -147 -57q-52 -51 -68 -140l-241 66q87 309 465 309q255 0 362 -129q134 127 336 127q238 0 377 -173q127 -158 127 -417v-53h-762
q2 -175 84 -270q73 -85 199 -85q188 0 237 214l236 -68q-109 -326 -475 -326q-327 0 -461 252zM786 547q-129 -2 -258 -33q-184 -44 -184 -191q0 -86 53 -130q46 -40 127 -40q80 0 152 53q65 48 110 132v209zM1552 672q-19 295 -250 295q-120 0 -190 -90q-59 -78 -68 -205
h508zM1011 1585h261l-236 -313h-158z" />
    <glyph glyph-name="uni1F70" unicode="&#x251;`" horiz-adv-x="1266" 
d="M544 1585l134 -313h-158l-236 313h260zM1087 297q0 -141 86 -141q31 0 68 12l-11 -184q-48 -8 -110 -8q-131 0 -196 52q-57 46 -75 140q-54 -97 -145 -150q-82 -49 -176 -49q-204 0 -321 171q-109 158 -109 423q0 282 150 447q122 135 294 135q200 0 307 -193l52 168h186
v-823zM833 754q-79 190 -221 190q-113 0 -184 -107q-68 -104 -68 -278q0 -210 79 -311q62 -80 163 -80q148 0 231 198v388z" />
    <glyph glyph-name="uni1F71" unicode="&#x251;&#x301;" horiz-adv-x="1266" 
d="M643 1585h260l-238 -313h-155zM1087 297q0 -141 86 -141q31 0 68 12l-11 -184q-48 -8 -110 -8q-131 0 -196 52q-57 46 -75 140q-54 -97 -145 -150q-82 -49 -176 -49q-204 0 -321 171q-109 158 -109 423q0 282 150 447q122 135 294 135q200 0 307 -193l52 168h186v-823z
M833 754q-79 190 -221 190q-113 0 -184 -107q-68 -104 -68 -278q0 -210 79 -311q62 -80 163 -80q148 0 231 198v388z" />
    <glyph glyph-name="uni1F72" unicode="&#x25b;`" horiz-adv-x="1124" 
d="M1055 891l-248 -66q-42 146 -231 146q-102 0 -160 -45q-49 -38 -49 -95q0 -161 262 -161h125v-177h-138q-274 0 -274 -172q0 -83 68 -132q61 -44 159 -44q112 0 175 40q57 36 91 114l238 -84q-66 -141 -207 -199q-114 -47 -295 -47q-246 0 -372 104q-107 89 -107 238
q0 115 86 191q72 64 184 79v13q-115 18 -182 92q-59 65 -59 156q0 149 139 233q121 72 315 72q375 0 480 -256zM541 1585l133 -313h-158l-236 313h261z" />
    <glyph glyph-name="uni1F73" unicode="&#x25b;&#x301;" horiz-adv-x="1124" 
d="M1055 891l-248 -66q-42 146 -231 146q-102 0 -160 -45q-49 -38 -49 -95q0 -161 262 -161h125v-177h-138q-274 0 -274 -172q0 -83 68 -132q61 -44 159 -44q112 0 175 40q57 36 91 114l238 -84q-66 -141 -207 -199q-114 -47 -295 -47q-246 0 -372 104q-107 89 -107 238
q0 115 86 191q72 64 184 79v13q-115 18 -182 92q-59 65 -59 156q0 149 139 233q121 72 315 72q375 0 480 -256zM645 1585h260l-238 -313h-155z" />
    <glyph glyph-name="uni4E5A" unicode="&#xe0100;" 
d="M1700 14q-122 -88 -639 -88q-271 0 -393 16q-106 15 -166 50q-71 41 -97 115q-24 66 -24 186v1091q0 179 -12 258q129 -3 231 -14q39 -3 39 -26q0 -14 -15 -39q-14 -24 -14 -160v-1051q0 -83 16 -122q15 -37 52 -58q62 -35 383 -35q413 0 491 72q63 60 76 305
q54 -37 170 -84q33 -13 40 -19q8 -7 8 -22q0 -7 -3 -31q-30 -270 -143 -344z" />
    <glyph glyph-name="uni4EBB" unicode="&#xe0100;" 
d="M1186 1083v-905l4 -317q0 -16 -4 -20q-4 -3 -18 -3h-189q-16 0 -19 4t-3 19l4 317v484q0 67 4 223q-222 -181 -487 -328q-34 -18 -45 -18q-13 0 -39 43q-58 93 -115 139q344 165 656 442q220 194 333 357q59 90 94 188q135 -47 211 -88q29 -16 29 -39q0 -19 -31 -41
q-29 -20 -63 -72q-127 -193 -322 -385z" />
    <glyph glyph-name="u20628" unicode="&#xe0100;" 
d="M66 -2q138 177 180 424q43 252 43 678l-4 512q0 16 4 19t19 3l286 -4h793l291 4q17 0 20 -4t3 -18l-4 -291v-76q0 -604 43 -866q30 -165 39 -198q17 -62 40 -62q43 0 50 293q33 -48 100 -92q31 -20 37 -28q8 -10 8 -27q0 -9 -2 -29q-24 -365 -201 -365q-103 0 -169 129
q-54 106 -91 313q-52 280 -55 932v195h-1006v-342q0 -454 -45 -727t-176 -479q-22 -31 -35 -31q-16 0 -41 29q-68 77 -127 108z" />
    <glyph glyph-name="uni5202" unicode="&#xe0100;" 
d="M965 98q120 -12 221 -12q52 0 71 18q17 17 17 62v1229q0 165 -16 291q134 -4 225 -15q33 -3 33 -22q0 -17 -12 -45q-13 -30 -13 -205v-869l6 -407q0 -85 -17 -129t-57 -72q-45 -31 -118 -41q-65 -9 -205 -10q-47 0 -55 9q-8 8 -17 52q-22 97 -63 166zM808 1499
q0 -8 -5 -21q-5 -14 -7 -20q-8 -26 -8 -223v-565l4 -271q0 -16 -4 -19t-18 -3h-179q-16 0 -19 4t-3 18l4 271v563q0 190 -14 303q128 -3 220 -14q29 -3 29 -23z" />
    <glyph glyph-name="uni353E" unicode="&#xe0100;" 
d="M1081 -96q-354 0 -511 20q-138 17 -191 58q-51 37 -70 103q-16 57 -16 161v1042l-4 313q0 17 4 20t19 3l313 -4h757l285 4q20 0 25 -6q4 -5 4 -23q-6 -89 -6 -199q-7 -493 -66 -653q-38 -106 -160 -129q-66 -12 -174 -12q-38 0 -90 1q-46 2 -54 12q-8 8 -13 52
q-16 121 -41 166q130 -17 233 -17q87 0 111 84q36 127 36 515h-960v-1124q0 -61 9 -87q9 -23 32 -42q62 -47 526 -47q483 0 561 65q39 33 54 100q12 52 18 164q64 -41 160 -73q38 -14 46 -20q10 -8 10 -26q0 -9 -3 -34q-14 -136 -52 -209q-30 -58 -87 -94q-135 -84 -705 -84
z" />
    <glyph glyph-name="uni2E8C" unicode="&#xe0101;" 
d="M1273 555q204 256 318 524q23 58 33 107q115 -41 208 -92q27 -18 27 -33q0 -16 -23 -35q-26 -22 -36 -41q-125 -255 -293 -487q-27 -39 -39 -39q-9 0 -49 27q-81 52 -146 69zM1141 1253q0 -6 -15 -45q-12 -27 -12 -164v-362l4 -229q0 -17 -4 -20t-18 -3h-181q-16 0 -19 4
t-3 19l4 229v362q0 157 -12 252q134 -3 223 -16q33 -3 33 -27zM692 626q4 -9 4 -14q0 -9 -14 -16l-170 -88q-10 -5 -15 -5q-9 0 -14 15q-117 291 -289 506q-7 9 -7 15q0 7 13 13l152 80q11 6 16 6q8 0 17 -12q168 -211 307 -500z" />
    <glyph glyph-name="u2D544" unicode="&#xe0102;" 
d="M1274 553q201 253 333 565q23 58 33 107q121 -43 207 -90q27 -18 27 -33q0 -14 -23 -33q-24 -20 -36 -43q-145 -299 -308 -528q-30 -39 -41 -39q-7 0 -47 27q-73 48 -145 67zM653 674q5 -10 5 -15q0 -9 -15 -16l-164 -84q-9 -5 -15 -5q-8 0 -14 15q-110 276 -264 475
q-7 10 -7 15q0 7 13 14l146 76q9 4 15 4q10 0 19 -13q165 -214 281 -466zM1179 723q2 -8 2 -12q0 -13 -16 -19l-166 -61q-7 -3 -12 -3q-10 0 -14 17q-86 304 -209 514q-5 10 -5 14q0 7 15 13l151 59q9 3 14 3q9 0 19 -15q139 -232 221 -510z" />
    <glyph glyph-name="u2D544" unicode="&#xe0100;" 
d="M1274 553q201 253 333 565q23 58 33 107q121 -43 207 -90q27 -18 27 -33q0 -14 -23 -33q-24 -20 -36 -43q-145 -299 -308 -528q-30 -39 -41 -39q-7 0 -47 27q-73 48 -145 67zM653 674q5 -10 5 -15q0 -9 -15 -16l-164 -84q-9 -5 -15 -5q-8 0 -14 15q-110 276 -264 475
q-7 10 -7 15q0 7 13 14l146 76q9 4 15 4q10 0 19 -13q165 -214 281 -466zM1179 723q2 -8 2 -12q0 -13 -16 -19l-166 -61q-7 -3 -12 -3q-10 0 -14 17q-86 304 -209 514q-5 10 -5 14q0 7 15 13l151 59q9 3 14 3q9 0 19 -15q139 -232 221 -510z" />
    <glyph glyph-name="uni5140" unicode="&#xe0100;" 
d="M424 1354l-262 -4q-17 0 -20 4t-3 18v169q0 17 4 21q4 3 19 3l262 -4h1200l262 4q18 0 21 -5q3 -4 3 -19v-169q0 -16 -4 -19t-20 -3l-262 4h-240v-1130q0 -55 9 -75q8 -17 30 -28q35 -16 127 -16q117 0 158 41q45 49 57 295q60 -41 143 -64q34 -12 41 -18q8 -8 8 -25
q0 -8 -2 -29q-22 -263 -104 -327q-53 -45 -125 -60q-66 -14 -192 -14q-214 0 -295 47q-49 25 -66 72q-16 43 -16 131v1200h-279v-289q0 -552 -156 -812q-124 -207 -427 -358q-37 -18 -49 -18q-15 0 -41 47q-48 84 -113 132q223 102 332 206q123 118 173 300q50 179 50 495
v297h-223z" />
    <glyph glyph-name="uni5C23" unicode="&#xe0100;" 
d="M133 1110q321 189 485 426q49 68 74 137q91 -44 192 -114q23 -17 23 -35q0 -19 -25 -31q-26 -15 -55 -55q-207 -299 -479 -475q-36 -23 -45 -23q-15 0 -43 43q-59 78 -127 127zM1836 -14q-48 -48 -123 -66t-211 -18q-159 0 -225 14q-59 12 -92 43q-51 51 -51 201v577
q0 196 -12 310q124 -7 231 -19q33 -3 33 -22q0 -17 -15 -45q-14 -35 -14 -228v-487q0 -93 16 -115q22 -24 138 -24q129 0 172 45q28 31 36 104q5 44 9 176q56 -37 155 -61q37 -9 44 -15q8 -7 8 -28v-21q-7 -137 -32 -211q-22 -66 -67 -110zM104 41q281 97 403 260
q60 80 87 187q30 119 34 309q1 37 1 69q0 112 -11 183q115 -4 227 -17q37 -3 37 -24q0 -13 -14 -45q-13 -34 -17 -187q-7 -270 -58 -417q-31 -94 -105 -195q-126 -170 -391 -285q-32 -14 -46 -14q-15 0 -43 47q-38 66 -104 129zM1138 1542q-5 8 -5 13q0 11 81 65
q79 51 90 51q6 0 15 -10q258 -338 610 -510q-59 -53 -113 -137q-27 -45 -41 -45q-7 0 -45 20q-345 204 -592 553z" />
    <glyph glyph-name="uni5C22" unicode="&#xe0100;" 
d="M448 1042l-264 -4q-18 0 -21 4t-3 18v166q0 18 4 22q4 3 20 3l264 -4h396q4 119 4 178q0 165 -17 270q130 -3 242 -22q39 -5 39 -27q0 -20 -18 -53q-23 -45 -23 -174l-6 -172h547l264 4q17 0 21 -4q3 -5 3 -21v-166q0 -16 -4 -19t-20 -3l-264 4h-566q-38 -304 -139 -533
q-170 -375 -594 -633q-32 -20 -47 -20q-14 0 -41 39q-58 80 -131 131q251 122 398 271q124 126 214 311q86 185 119 434h-377zM1736 385q65 -34 160 -59q34 -10 41 -16q8 -6 8 -23q0 -7 -2 -27q-13 -233 -106 -313q-85 -74 -363 -74q-292 0 -361 57q-38 30 -51 77
q-12 44 -12 130v522q0 166 -12 240q123 -3 217 -14q35 -3 35 -21q0 -12 -13 -41q-14 -28 -14 -155v-457q0 -90 23 -106q32 -27 196 -27q167 0 207 43q44 49 47 264z" />
    <glyph glyph-name="uni5DF3" unicode="&#xe0100;" 
d="M577 178q59 -47 515 -47q473 0 561 65q61 45 71 264q66 -41 156 -73q41 -15 50 -23q11 -9 11 -28q0 -11 -3 -37q-18 -137 -55 -206q-30 -54 -85 -89q-135 -84 -704 -84q-346 0 -501 20q-137 17 -190 58q-51 37 -70 103q-16 57 -16 161v1093l-4 220q0 17 4 21q4 3 19 3
l286 -4h779l284 4q17 0 20 -5q3 -4 3 -19l-4 -220v-460l4 -215q0 -16 -4 -19q-3 -2 -18 -2h-178q-17 0 -20 3t-3 18v104h-949v-471q0 -106 41 -135zM1485 1390h-949v-401h949v401z" />
    <glyph glyph-name="uni5E7A" unicode="&#xe0100;" 
d="M1521 668q214 -296 371 -658q5 -12 5 -16q0 -8 -23 -21l-152 -67q-16 -8 -27 -8t-16 16q-37 105 -86 209q-587 -94 -1266 -153q-53 -7 -71 -15q-34 -14 -41 -14q-23 0 -33 35q-17 67 -39 212h83q73 0 140 5l105 6q172 175 331 362q-259 304 -542 535q-12 9 -12 16t18 25
l106 104q18 18 25 18q6 0 16 -10l156 -133q139 181 252 393q42 76 76 170q117 -40 206 -88q29 -17 29 -39q0 -18 -25 -34q-14 -11 -61 -86q-177 -289 -317 -461q128 -128 221 -234q180 229 291 402q75 116 112 207q155 -78 205 -109q29 -19 29 -41q0 -20 -27 -35
q-26 -15 -84 -92q-362 -494 -698 -846q351 34 721 90q-74 134 -173 273q-5 7 -5 13q0 10 26 22l131 53q17 7 24 7q9 0 19 -13z" />
    <glyph glyph-name="uni5F51" unicode="&#xe0100;" 
d="M380 -74l-254 -4q-20 0 -20 22v169q0 22 20 22l254 -4h826q28 120 74 340h-676l-37 -113q-9 -23 -30 -23q-3 0 -15 1l-162 14q-26 2 -26 12q0 5 4 15q203 543 323 1171q14 90 14 152q109 -8 223 -27q31 -6 31 -24q0 -20 -20 -48q-10 -10 -29 -92l-39 -182h565l232 4
q26 0 26 -17q0 -3 -1 -8q-31 -162 -35 -184q-79 -504 -191 -991h223l256 4q21 0 21 -22v-169q0 -22 -21 -22l-256 4h-1280zM1402 1128h-610q-47 -199 -125 -460h651q56 281 84 460z" />
    <glyph glyph-name="uni2E95" unicode="&#xe0101;" 
d="M1700 899l234 4q16 0 19 -4t3 -18v-173q0 -15 -3.5 -18.5t-18.5 -3.5l-234 4v-420l4 -401q0 -16 -4 -20q-4 -3 -18 -3h-184q-17 0 -20 4t-3 19v96h-905l-285 -4q-16 0 -19 4t-3 19v172q0 16 4 19t18 3l285 -4h905v516h-1100l-256 -4q-16 0 -19 4t-3 18v173q0 16 4 19
t18 3l256 -4h1100v473h-872l-287 -4q-16 0 -20 4q-3 4 -3 18v173q0 16 5 19q3 3 18 3l287 -4h788l290 4q17 0 20 -4t3 -18l-4 -402v-262z" />
    <glyph glyph-name="uni5FC4" unicode="&#xe0100;" 
d="M1153 1675q0 -14 -10 -41q-15 -32 -15 -225v-1192l4 -358q0 -17 -4 -20t-18 -3h-193q-16 0 -19 4t-3 19l4 358v1188q0 190 -16 307q148 -4 239 -14q31 -4 31 -23zM813 1233q17 -7 17 -20q0 -4 -2 -11q-56 -257 -140 -434q-6 -12 -12 -12q-3 0 -15 6l-135 78q-15 9 -15 18
q0 5 5 14q75 140 131 402q3 16 11 16q4 0 13 -4zM1495 948q2 -8 2 -11q0 -9 -17 -17l-137 -62q-10 -5 -15 -5q-8 0 -12 15q-53 201 -122 349q-5 9 -5 14q0 9 15 14l129 51q8 4 13 4q10 0 18 -16q52 -105 131 -336z" />
    <glyph glyph-name="uni38FA" unicode="&#xe0100;" 
d="M514 502q99 -10 176 -10q55 0 55 53v579q0 154 -12 217q155 -11 221 -20q33 -3 33 -23q0 -18 -10 -38q-13 -28 -13 -140v-401l2 -217q0 -130 -80 -174q-71 -39 -239 -41q-48 0 -57 9q-8 8 -17 50q-21 101 -59 156zM1444 569q1 -7 1 -12q0 -12 -16 -18l-164 -70
q-7 -3 -11 -3q-11 0 -15 17q-67 240 -186 465q-5 10 -5 15q0 8 15 14l147 49q9 3 14 3q11 0 19 -15q128 -217 201 -445zM1896 641q6 -11 6 -16q0 -8 -14 -15l-158 -92q-9 -6 -14 -6q-7 0 -14 14q-118 236 -305 449q-8 9 -8 14q0 6 14 12l133 72q10 5 16 5q10 0 21 -11
q186 -193 323 -426zM610 971q15 -6 15 -17q0 -6 -3 -14q-92 -277 -252 -473q-9 -11 -15 -11q-5 0 -17 7l-154 90q-10 5 -12 8q-2 2 -2 5q0 4 8 14q173 191 252 432q4 17 15 17q4 0 11 -3z" />
    <glyph glyph-name="uni624C" unicode="&#xe0100;" 
d="M1132 608v-100l2 -414q0 -87 -15 -128q-14 -40 -51 -67q-63 -45 -231 -45h-31q-46 2 -55 11q-8 8 -18 49q-21 82 -64 159q78 -8 191 -8q36 0 45 17q8 14 8 55v410q-161 -45 -272 -70q-50 -10 -72 -27q-22 -14 -37 -14q-19 0 -31 27q-40 99 -67 194q63 6 196 31
q79 14 283 65v375h-129l-262 -4q-16 0 -20 4q-3 4 -3 19v155q0 17 4 20t19 3l262 -4h129v100q0 168 -16 291q141 -4 227 -14q37 -4 37 -23q0 -10 -14 -43q-15 -29 -15 -207v-104h113l262 4q16 0 19 -4t3 -19v-155q0 -17 -4 -20t-18 -3l-262 4h-113v-317q253 64 395 114
q-11 -108 -12 -145q-2 -42 -9 -50t-40 -20q-151 -51 -334 -102z" />
    <glyph glyph-name="uni6535" unicode="&#xe0100;" 
d="M1968 86q-42 -55 -92 -168q-23 -53 -43 -53q-8 0 -45 10q-463 154 -760 399q-285 -245 -758 -399q-34 -12 -49 -12q-17 0 -39 49q-43 90 -94 149q517 150 776 365q-221 227 -352 530q-94 -138 -201 -247q-32 -29 -43 -29q-14 0 -43 35q-60 72 -133 112q347 308 498 752
q24 65 35 141q121 -21 217 -49q37 -14 37 -29q0 -19 -21 -37q-24 -24 -47 -86q-45 -115 -76 -178h832l282 4q16 0 20 -5q3 -4 3 -19v-169q0 -16 -4 -19t-19 -3l-282 4h-27q-108 -431 -356 -708q280 -210 784 -340zM1307 1134h-637q123 -339 346 -561q200 228 291 561z" />
    <glyph glyph-name="uni65E1" unicode="&#xe0100;" 
d="M376 1292q110 -10 213 -25q31 -5 31 -24q0 -17 -22 -39q-19 -22 -37 -90l-37 -131h405q44 204 54 411h-435l-278 -4q-16 0 -20 4q-3 4 -3 18v161q0 16 5 19q3 3 18 3l278 -4h967l277 4q16 0 19 -4t3 -18v-161q0 -16 -4 -19t-18 -3l-277 4h-313q-10 -213 -51 -411h450
l281 4q17 0 21 -4q3 -4 3 -18v-165q0 -16 -4 -19t-20 -3l-281 4h-502l-32 -92q54 -2 184 -14q33 -4 33 -23q0 -14 -13 -39q-12 -29 -12 -158v-235q0 -89 21 -104q32 -27 196 -27q169 0 209 43q47 53 47 264q72 -34 156 -55q36 -10 43 -16q9 -7 9 -26q0 -9 -1 -26
q-16 -231 -111 -313q-88 -76 -360 -76q-288 0 -357 57q-39 30 -53 77q-12 43 -12 132v297q0 123 -4 180q-24 -57 -70 -141q-195 -346 -669 -605q-41 -20 -50 -20q-12 0 -43 45q-66 95 -122 134q492 211 702 561q42 68 84 180h-418q-18 -53 -47 -121q-8 -22 -24 -22
q-6 0 -19 2l-156 24q-30 6 -30 14q0 4 4 13q85 176 158 422q25 86 34 178z" />
    <glyph glyph-name="uni6B7A" unicode="&#xe0100;" 
d="M901 281q-133 147 -276 254q-11 7 -11 14t11 14l118 92q13 9 20 9q8 0 17 -7q126 -92 299 -253q191 158 324 401h-662q-158 -179 -389 -319q-35 -23 -47 -23q-13 0 -37 45q-44 75 -100 121q324 151 522 434q33 47 64 114q92 -27 175 -67q29 -13 29 -29t-27 -33
q-12 -7 -46 -55h141v453q0 152 -14 262q133 -4 227 -15q35 -3 35 -22q0 -14 -12 -43q-17 -33 -17 -160v-51h375l217 4q16 0 19 -4t3 -18v-163q0 -16 -4 -19t-18 -3l-217 4h-375v-225h248q31 0 51 8q25 8 33 8q24 0 80 -53q51 -48 51 -72q0 -16 -23 -32q-27 -20 -41 -43
q-240 -421 -537 -636q-295 -214 -769 -331q-37 -8 -43 -8q-18 0 -37 51q-36 86 -86 142q458 93 729 254z" />
    <glyph glyph-name="uni6BCD" unicode="&#xe0100;" 
d="M920 766q157 -103 272 -215q12 -12 12 -19t-18 -22l-96 -94q-22 -19 -27 -19q-6 0 -16 11q-126 135 -266 231q-12 9 -12 15t17 22l91 84q15 15 23 15q6 0 20 -9zM995 1380q121 -85 255 -219q10 -10 10 -18q0 -11 -17 -25l-100 -86q-15 -14 -25 -14q-7 0 -16 12
q-120 138 -248 232q-12 9 -12 14q0 6 20 22l88 76q18 14 26 14t19 -8zM350 800l-243 -4q-17 0 -20 4t-3 19v156q0 16 4 19t19 3l243 -4h41q18 125 45 340q19 176 19 237v17q0 27 25 27l278 -4h657l281 4q24 0 24 -27l-10 -197l-20 -397h24l244 4q16 0 19 -4t3 -18v-156
q0 -16 -3.5 -19.5t-18.5 -3.5l-244 4h-37q-17 -244 -39 -431l226 4q16 0 19 -4t3 -19v-156q0 -15 -3.5 -18.5t-18.5 -3.5l-248 4v-8q-23 -177 -91 -246q-70 -72 -216 -72q-84 0 -148 4q-47 3 -57 12q-9 7 -16 39q-22 91 -54 152q138 -19 219 -19q77 0 107 32q28 29 41 106
h-944l-29 -104q-7 -30 -37 -30q-18 0 -86 8q-74 7 -92 12q-19 6 -19 18q0 6 5 19q45 134 61 202q64 287 98 499h-8zM498 369h927q17 141 41 431h-890q-32 -200 -78 -431zM662 1417q-25 -212 -56 -424h873q13 188 20 424h-837z" />
    <glyph glyph-name="uni6C11" unicode="&#xe0100;" 
d="M1102 305q-12 -66 -14 -133q-4 -52 -13 -63q-8 -8 -53 -23q-328 -104 -719 -186q-46 -8 -67 -21q-25 -16 -41 -16q-24 0 -31 33q-16 61 -41 200q85 3 213 25v1105l-4 361q0 17 4 20t19 3l306 -4h738l323 4q21 0 21 -23l-4 -177v-190l4 -179q0 -23 -21 -23l-323 4h-184
q14 -156 30 -236l310 9q116 3 214 9q65 3 70 3q18 0 21 -4q2 -3 2 -19l4 -157q0 -16 -3.5 -19.5t-19.5 -3.5q-96 0 -284 -4l-269 -8q32 -113 78 -205q64 -137 150 -214q68 -62 123 -62q79 0 96 268q47 -44 127 -86q38 -18 46 -25q10 -10 10 -26q0 -10 -5 -41
q-55 -332 -260 -332q-125 0 -251 105q-122 101 -212 276q-77 156 -123 336l-514 -13v-409q279 60 547 141zM1526 1208v212h-971v-212h971zM995 1022h-440v-254l471 12q-19 115 -31 242z" />
    <glyph glyph-name="uni6C35" unicode="&#xe0100;" 
d="M1118 635q85 -91 124 -127q33 -30 33 -41q0 -6 -16 -39q-138 -252 -295 -465q-37 -50 -47 -75q-11 -25 -31 -25q-14 0 -39 18q-93 68 -155 127q77 75 127 139q164 218 299 488zM1294 1448q10 -7 10 -14q0 -6 -8 -17l-109 -137q-8 -12 -15 -12q-6 0 -15 8
q-177 152 -357 242q-14 6 -14 13q0 5 8 13l117 127q10 12 18 12q5 0 17 -6q184 -98 348 -229zM1187 938q12 -8 12 -16q0 -6 -8 -17l-108 -139q-9 -12 -16 -12q-5 0 -15 8q-143 129 -356 246q-13 6 -13 11t9 15l104 127q10 12 18 12q6 0 17 -6q188 -93 356 -229z" />
    <glyph glyph-name="uni2EA2" unicode="&#xe0101;" 
d="M798 748q3 -60 23 -158q6 -30 6 -39q0 -18 -37 -45q-240 -177 -481 -310q-42 -23 -61 -43q-16 -18 -31 -18t-29 25q-46 76 -90 188q80 24 164 68q282 139 536 332zM1185 1001q207 155 359 355q37 49 61 98q109 -71 162 -119q25 -22 25 -41q0 -18 -29 -33
q-54 -29 -100 -86q-125 -151 -301 -288q-29 -23 -39 -23q-14 0 -39 35q-33 51 -99 102zM1188 590q-9 8 -9 14q0 11 62 80q62 72 73 72q5 0 13 -8q272 -258 610 -418q-51 -48 -110 -146q-26 -43 -39 -43q-10 0 -48 21q-320 188 -552 428zM739 1001q8 -10 8 -17q0 -8 -10 -17
l-125 -127q-9 -9 -15 -9t-14 11q-166 235 -358 397q-10 9 -10 15t10 16l113 110q10 11 16 11q7 0 16 -9q209 -172 369 -381zM614 76q106 -10 162 -10q86 0 109 16q22 15 22 61v1323q0 167 -14 248q126 -3 222 -14q29 -3 29 -23q0 -22 -10 -53q-10 -33 -10 -156v-948l4 -432
q0 -79 -18 -120q-18 -39 -60 -66q-68 -42 -286 -45q-47 0 -56 9q-8 8 -18 50q-31 106 -76 160z" />
    <glyph glyph-name="uni706C" unicode="&#xe0100;" 
d="M936 535q0 -23 -23 -25l-167 -12q-4 -1 -8 -1q-15 0 -15 21v38q0 247 -36 435q-2 7 -2 11q0 9 20 12l155 16q4 1 8 1q14 0 19 -21q42 -218 49 -475zM547 1005q17 -8 17 -18q0 -5 -3 -12q-104 -305 -258 -494q-9 -12 -15 -12t-16 8l-147 127q-10 8 -10 15q0 5 10 16
q170 176 250 430q4 16 13 16q6 0 13 -4zM1405 569q1 -6 1 -11q0 -13 -19 -17l-175 -41q-7 -2 -11 -2q-11 0 -13 18q-30 264 -103 471q-3 8 -3 13q0 10 18 14l153 30q7 2 12 2q13 0 19 -18q74 -190 121 -459zM1923 622q3 -8 3 -13q0 -10 -15 -17l-156 -91q-9 -5 -14 -5
q-8 0 -14 16q-90 274 -228 483q-6 9 -6 14q0 7 14 15l138 80q9 4 15 4q10 0 19 -13q142 -195 244 -473z" />
    <glyph glyph-name="uniFA49" unicode="&#xe0101;" 
d="M147 1202h67q416 0 754 31q238 21 477 74q111 25 177 55q91 -65 167 -141q23 -23 23 -41q0 -24 -33 -27q-50 0 -106 -12q-248 -55 -639 -94q-297 -30 -740 -49q-23 -2 -31 -2q-25 0 -33 13q-6 9 -17 48q-25 85 -66 145zM636 541q3 -8 3 -12q0 -11 -17 -17l-160 -59
q-9 -4 -14 -4q-9 0 -12 16q-64 238 -160 401q-5 10 -5 14q0 5 15 11l150 49q7 3 12 3q10 0 21 -15q91 -139 167 -387zM1144 606q4 -8 4 -14q0 -11 -16 -17l-158 -55q-7 -3 -11 -3q-9 0 -15 17q-70 233 -144 365q-6 10 -6 16q0 7 15 13l147 49q11 4 15 4q9 0 18 -14
q65 -109 151 -361zM1214 461q181 226 283 461q20 47 30 106q112 -36 188 -78q29 -14 29 -30q0 -14 -27 -37q-18 -19 -43 -68q-124 -233 -251 -401q-31 -37 -41 -37q-12 0 -49 25q-63 38 -119 59z" />
    <glyph glyph-name="uniFA49" unicode="&#xfe00;" 
d="M147 1202h67q416 0 754 31q238 21 477 74q111 25 177 55q91 -65 167 -141q23 -23 23 -41q0 -24 -33 -27q-50 0 -106 -12q-248 -55 -639 -94q-297 -30 -740 -49q-23 -2 -31 -2q-25 0 -33 13q-6 9 -17 48q-25 85 -66 145zM636 541q3 -8 3 -12q0 -11 -17 -17l-160 -59
q-9 -4 -14 -4q-9 0 -12 16q-64 238 -160 401q-5 10 -5 14q0 5 15 11l150 49q7 3 12 3q10 0 21 -15q91 -139 167 -387zM1144 606q4 -8 4 -14q0 -11 -16 -17l-158 -55q-7 -3 -11 -3q-9 0 -15 17q-70 233 -144 365q-6 10 -6 16q0 7 15 13l147 49q11 4 15 4q9 0 18 -14
q65 -109 151 -361zM1214 461q181 226 283 461q20 47 30 106q112 -36 188 -78q29 -14 29 -30q0 -14 -27 -37q-18 -19 -43 -68q-124 -233 -251 -401q-31 -37 -41 -37q-12 0 -49 25q-63 38 -119 59z" />
    <glyph glyph-name="uni4E2C" unicode="&#xe0100;" 
d="M1084 502q-158 -106 -358 -213q-30 -15 -62 -52q-14 -18 -31 -18q-22 0 -30 20q-47 96 -94 232q79 21 135 45q221 92 440 238v696q0 152 -14 264q114 -3 231 -16q31 -4 31 -25q0 -10 -13 -43q-10 -31 -10 -182v-1217l4 -370q0 -16 -4 -20q-4 -3 -18 -3h-189q-16 0 -19 4
t-3 19l4 370v271zM1032 1092q8 -11 8 -16q0 -7 -12 -17l-133 -119q-9 -8 -14 -8q-6 0 -15 12q-134 201 -311 359q-11 9 -11 15t11 15l127 103q12 8 19 8t16 -8q200 -186 315 -344z" />
    <glyph glyph-name="uni72AD" unicode="&#xe0100;" 
d="M1137 700q-157 -226 -412 -415q-31 -21 -39 -21q-17 0 -35 41q-37 80 -88 137q343 224 524 494q-38 111 -67 174q-136 -123 -295 -221q-35 -23 -45 -23q-14 0 -35 47q-41 82 -90 131q193 108 362 252q-67 101 -131 179q-12 16 -74 82q-6 6 -6 10q0 10 82 57q77 44 93 44
q8 0 16 -9q92 -101 172 -213q77 86 121 166q33 58 45 98q94 -44 174 -96q23 -14 23 -33q0 -18 -21 -31q-33 -20 -61 -65q-70 -108 -170 -217q186 -352 186 -807q0 -373 -102 -500q-83 -104 -283 -104q-45 0 -115 4q-46 3 -55 13q-7 9 -14 53q-18 87 -54 155q103 -14 220 -14
q112 0 149 80q39 84 39 313q0 136 -14 239z" />
    <glyph glyph-name="uni2EA9" unicode="&#xe0101;" 
d="M926 275v501h-125l-266 -4q-16 0 -20 4q-3 4 -3 19v157q0 17 4 20t19 3l266 -4h125v403h-164l-274 -4q-17 0 -20 4t-3 19v162q0 16 4 19t19 3l274 -4h557l274 4q17 0 20 -4t3 -18v-162q0 -17 -4 -20t-19 -3l-274 4h-176v-403h137l266 4q16 0 20 -4q3 -4 3 -19v-157
q0 -17 -4 -20t-19 -3l-266 4h-137v-438q242 72 473 160q-7 -64 -7 -119q0 -18 1 -39q1 -16 1 -23q0 -23 -10 -31q-7 -6 -38 -17q-423 -155 -936 -291q-55 -13 -74 -29q-22 -18 -39 -18t-31 27q-38 97 -63 212q87 7 219 35q171 38 287 70z" />
    <glyph glyph-name="u24D14" unicode="&#xe0100;" 
d="M623 124v741q0 137 -15 223q121 -3 207 -12q31 -3 31 -19q0 -15 -10 -38q-14 -29 -14 -129v-713q163 48 165 49v795q0 139 -15 223q31 0 101 -4q100 80 195 182h-406l-260 -4q-16 0 -19 4t-3 18v151q0 17 4 20t18 3l260 -4h463q25 0 49 8q25 8 35 8q27 0 94 -60
q76 -65 76 -93q0 -15 -27 -33q-35 -24 -76 -71q-133 -151 -286 -271q-2 -14 -2 -53v-166h133l160 4q16 0 19 -4t3 -18v-150q0 -16 -4 -19t-18 -3l-160 4h-133v-402q192 67 321 119q-1 -26 -1 -55q0 -46 3 -86q2 -21 2 -30q0 -20 -10 -27q-7 -6 -35 -17q-316 -129 -792 -276
q-56 -17 -80 -35q-20 -16 -37 -16q-18 0 -28 25q-33 84 -66 200q74 11 158 31z" />
    <glyph glyph-name="uni7F52" unicode="&#xe0100;" 
d="M430 434v-94q0 -16 -4 -20q-4 -3 -19 -3h-168q-16 0 -19 5q-3 3 -3 18l4 407v208l-4 295q0 16 4 19t19 3l284 -4h1000l284 4q17 0 20 -4t3 -18l-4 -254v-245l4 -405q0 -15 -3.5 -19t-18.5 -4h-170q-17 0 -20 5q-3 3 -3 18v88h-1186zM1350 624h266v454h-266v-454z
M1147 624v454h-260v-454h260zM684 624v454h-254v-454h254z" />
    <glyph glyph-name="uni2EAC" unicode="&#xe0100;" 
d="M1142 934v-797l4 -266q0 -16 -4 -19t-18 -3h-187q-16 0 -19 4t-3 18l4 266v797h-496l-266 -4q-16 0 -19 4t-3 18v168q0 16 4 20q4 3 18 3l266 -4h1204l267 4q16 0 19 -4t3 -19v-168q0 -16 -4 -19t-18 -3l-267 4h-485zM164 49q130 127 176 275q41 129 41 342q0 64 -10 143
q154 -8 214 -18q37 -7 37 -27q0 -10 -12 -41q-11 -24 -11 -92q0 -222 -48 -376q-46 -144 -144 -269q-31 -37 -43 -37q-7 0 -47 27q-77 51 -153 73zM649 1397l-287 -4q-16 0 -19 4t-3 18v168q0 16 4 20q4 3 18 3l287 -4h758l287 4q16 0 19 -4t3 -19v-168q0 -16 -4 -19t-18 -3
l-287 4h-758zM1721 766q0 -19 -10 -39q-13 -27 -13 -154v-340l4 -221q0 -15 -3.5 -18.5t-18.5 -3.5h-183q-16 0 -19 4t-3 18l4 221v338q0 138 -14 234q141 -4 225 -17q31 -3 31 -22z" />
    <glyph glyph-name="uni793B" unicode="&#xe0100;" 
d="M1122 649v-557l4 -231q0 -16 -4 -20q-4 -3 -18 -3h-181q-16 0 -19 5q-3 3 -3 18l4 231v459q-169 -129 -385 -240q-36 -16 -43 -16q-15 0 -37 47q-41 88 -98 146q314 125 573 337q216 178 330 365h-463l-266 -4q-16 0 -20 4q-3 4 -3 18v154q0 16 5 19q3 3 18 3l266 -4h117
v90q0 154 -14 246q122 -3 222 -17q35 -3 35 -20q0 -14 -12 -43q-12 -25 -12 -170v-86h217q18 0 39 10q20 10 29 10q25 0 90 -55q57 -47 57 -72q0 -23 -25 -40q-19 -15 -53 -74q-99 -171 -258 -336q178 -177 512 -313q-51 -49 -102 -143q-27 -47 -39 -47q-11 0 -45 18
q-238 125 -418 311z" />
    <glyph glyph-name="u25AD7" unicode="&#xe0100;" 
d="M764 827q53 -101 108 -260q3 -7 3 -12q0 -8 -17 -15l-168 -53q-6 -2 -11 -2q-11 0 -16 19q-52 195 -114 323h-97q-95 -141 -215 -264q-26 -27 -41 -27t-41 35q-49 69 -100 102q212 201 338 457q37 77 51 141q113 -14 201 -34q33 -6 33 -25q0 -15 -18 -31q-25 -17 -39 -51
q-23 -54 -64 -129h213l180 4q16 0 20 -4q3 -4 3 -18v-138q0 -16 -5 -19q-3 -3 -18 -3l-180 4h-6zM1581 827q52 -105 102 -262q3 -8 3 -12q0 -8 -17 -15l-162 -53q-8 -3 -12 -3q-9 0 -13 17q-43 188 -118 328h-111q-70 -128 -180 -250q-30 -33 -41 -33q-10 0 -41 37
q-56 62 -109 90q183 176 306 482q23 53 28 112q105 -11 190 -30q31 -7 31 -27q0 -14 -18 -33q-14 -11 -33 -61q-15 -41 -47 -113h350l215 4q16 0 20 -4q3 -4 3 -18v-138q0 -15 -3.5 -18.5t-19.5 -3.5l-215 4h-108z" />
    <glyph glyph-name="uni7F53" unicode="&#xe0100;" 
d="M909 692q-161 95 -315 172q-14 7 -14 13q0 5 8 14l94 114q10 12 18 12q5 0 17 -6q162 -78 350 -188q88 85 145 174q41 62 56 105q94 -28 181 -70q27 -12 27 -27q0 -16 -25 -35q-27 -17 -55 -55q-75 -112 -157 -196q142 -91 281 -195q12 -9 12 -15t-8 -16l-109 -133
q-9 -11 -15 -11q-5 0 -16 9q-132 110 -299 223q-161 -127 -389 -240q-40 -18 -47 -18q-13 0 -43 45q-47 66 -106 107q218 84 409 217zM440 307q0 -16 -4 -20q-4 -3 -18 -3h-177q-16 0 -19 5q-3 3 -3 18l4 432v231l-4 326q0 17 4 20t19 3l284 -4h994l284 4q17 0 20 -4t3 -19
l-4 -280v-269l4 -430q0 -15 -3.5 -18.5t-18.5 -3.5h-176q-17 0 -20 4t-3 18v805h-1166v-815z" />
    <glyph glyph-name="u2626A" unicode="&#xe0100;" 
d="M938 1135q-4 -262 -86 -413q-75 -140 -246 -244q-36 -23 -47 -23q-12 0 -39 45q-40 62 -80 96v-278q0 -16 -4 -20q-4 -3 -18 -3h-177q-16 0 -19 5q-3 3 -3 18l4 432v229l-4 324q0 16 4 19t19 3l284 -4h994l284 4q17 0 20 -4t3 -18l-4 -279v-266l4 -430q0 -15 -3.5 -18.5
t-18.5 -3.5h-175q-16 0 -19 4t-3 18v324q-13 -40 -29 -56q-34 -39 -96 -52q-50 -11 -142 -11q-150 0 -194 33q-62 43 -62 145v424h-147zM440 623q159 89 223 193q62 99 74 319h-297v-512zM1284 1135v-352q0 -35 14 -50q15 -14 60 -14q57 0 76 18q26 24 28 146
q43 -23 121 -45q16 -3 25 -6v303h-324z" />
    <glyph glyph-name="uni2EB7" unicode="&#xe0100;" 
d="M899 991h-381l-280 -4q-17 0 -20 4t-3 19v156q0 16 4 19t19 3l280 -4h137l-2 6q-56 134 -156 266q-7 10 -7 15q0 7 14 12l157 61q9 3 15 3q11 0 20 -13q99 -128 156 -256q5 -9 5 -14q0 -7 -15 -15l-146 -65h420q100 143 166 274q21 43 34 96q137 -31 203 -55
q33 -10 33 -29q0 -11 -21 -28q-19 -15 -40 -51q-51 -86 -144 -207h187l280 4q16 0 20 -4q3 -4 3 -18v-156q0 -17 -5 -20q-3 -3 -18 -3l-280 4h-406v-207h291l287 4q16 0 19 -4t3 -18v-154q0 -15 -3.5 -18.5t-18.5 -3.5l-287 4h-291v-219h506l264 4q16 0 20 -4q3 -4 3 -19
v-162q0 -15 -3.5 -18.5t-19.5 -3.5l-264 4h-1218l-264 -4q-17 0 -20 4t-3 18v162q0 17 4 20t19 3l264 -4h483v219h-264l-287 -4q-16 0 -19 4t-3 18v154q0 16 4 19t18 3l287 -4h264v207z" />
    <glyph glyph-name="uni8002" unicode="&#xe0100;" 
d="M1415 1072q70 80 121 147q56 73 90 153q126 -60 188 -100q27 -17 27 -37q0 -17 -23 -28q-42 -25 -86 -76q-140 -172 -297 -314h207l264 4q16 0 20 -4q3 -4 3 -18v-152q0 -15 -3.5 -18.5t-19.5 -3.5l-264 4h-407q-409 -310 -967 -537q-36 -14 -45 -14q-15 0 -41 49
q-41 80 -94 129q461 146 817 373h-498l-264 -4q-16 0 -20 4q-3 4 -3 18v152q0 16 5 19q3 3 18 3l264 -4h418v228h-215l-270 -4q-17 0 -20 4t-3 18v148q0 16 4 19t19 3l270 -4h215v82q0 134 -14 213q152 -4 221 -12q33 -4 33 -23q0 -23 -10 -41q-17 -35 -17 -141v-78h84
l270 4q16 0 20 -4q3 -4 3 -18v-139zM1153 817q126 102 235 224l-266 4h-84v-228h115z" />
    <glyph glyph-name="uni2EBC" unicode="&#xe0101;" 
d="M1282 1065q12 -8 12 -15q0 -5 -6 -16l-84 -145q-6 -12 -14 -12q-6 0 -16 7q-164 123 -392 220q-13 5 -13 11q0 5 5 15l74 127q11 18 21 18q4 0 12 -3q202 -76 401 -207zM1280 559q12 -8 12 -16q0 -6 -6 -17l-82 -141q-8 -13 -15 -13q-6 0 -15 7q-188 139 -402 235
q-13 5 -13 12q0 5 5 15l74 127q9 15 19 15q5 0 13 -3q218 -84 410 -221zM1282 61q72 0 72 71v1313h-643v-457q0 -457 -99 -729q-70 -194 -229 -383q-28 -35 -39 -35q-8 0 -43 35q-73 81 -145 111q193 184 263 397q73 220 73 602v309l-4 324q0 17 4 20t18 3l273 -4h497l272 4
q16 0 20 -4q3 -4 3 -19l-4 -324v-931l4 -283q0 -119 -64 -166q-64 -52 -286 -55q-47 0 -55 9q-8 8 -17 52q-20 91 -61 148q93 -8 190 -8z" />
    <glyph glyph-name="u26951" unicode="&#xe0100;" 
d="M1603 12h-303l-170 -4q-16 0 -20 4q-3 4 -3 18v159q0 15 3.5 18.5t19.5 3.5l170 -4h303v448h-301l-170 -4q-16 0 -20 4q-3 4 -3 19v162q0 16 5 19q3 3 18 3l170 -4h301v426h-274l-213 -4q-17 0 -20 4t-3 18v161q0 16 4 19t19 3l213 -4h256l217 4q16 0 19 -4t3 -19
l-4 -352v-852l4 -352q0 -16 -4 -20q-4 -3 -18 -3h-176q-17 0 -20 5q-3 3 -3 18v110zM456 854h295l166 4q16 0 19 -4t3 -18v-162q0 -17 -4 -20t-18 -3l-166 4h-295v-448h295l168 4q16 0 19 -4t3 -18v-159q0 -15 -3.5 -18.5t-18.5 -3.5l-168 4h-295v-116q0 -16 -4 -20
q-4 -3 -19 -3h-176q-15 0 -18.5 3.5t-3.5 19.5l4 366v916q0 181 -12 295q89 -16 165 -41q205 76 371 182q60 38 96 78q87 -61 156 -127q23 -23 23 -39q0 -27 -31 -33q-33 -5 -104 -47q-192 -111 -447 -199v-393z" />
    <glyph glyph-name="uni8279" unicode="&#xe0100;" 
d="M623 950v47q0 136 -12 207q132 -4 206 -14q31 -4 31 -21q0 -12 -12 -31q-12 -21 -12 -133v-55h383v47q0 136 -13 207q133 -4 207 -14q31 -4 31 -21q0 -12 -12 -31q-13 -21 -13 -133v-55h240l262 4q16 0 20 -4q3 -4 3 -18v-159q0 -15 -4 -18.5t-19 -3.5l-262 4h-240v-29
l4 -204q0 -16 -3.5 -19.5t-18.5 -3.5h-164q-16 0 -20 4q-3 4 -3 19l5 204v29h-383v-29l4 -204q0 -17 -4 -20t-19 -3h-164q-16 0 -19 4t-3 19l4 204v29h-221l-262 -4q-17 0 -20 4t-3 18v159q0 16 4 19t19 3l262 -4h221z" />
    <glyph glyph-name="uniFA5E" unicode="&#xe0102;" 
d="M1252 755q-75 -1 -134 -3l-40 -1q-17 0 -20 4t-3 18v159q0 16 4 19t19 3q2 0 22 -1q68 -2 152 -3v47q0 136 -13 207q133 -4 207 -14q31 -4 31 -21q0 -12 -12 -31q-13 -21 -13 -133v-55h215l242 4q16 0 20 -4q3 -4 3 -18v-159q0 -15 -4 -18.5t-19 -3.5l-242 4h-215v-29
l4 -204q0 -16 -3.5 -19.5t-18.5 -3.5h-164q-16 0 -20 4q-3 4 -3 19l5 204v29zM566 950v47q0 136 -13 207q133 -3 207 -14q31 -4 31 -21q0 -12 -12 -30q-13 -22 -13 -133v-56l185 4q16 0 19 -4t3 -18v-158q0 -16 -4 -19t-18 -3l-185 4v-29l4 -205q0 -16 -4 -19t-18 -3h-164
q-17 0 -20 4t-3 18l5 205v29h-189l-237 -4q-17 0 -20 4t-3 18v158q0 16 4 19t19 3l237 -4h189z" />
    <glyph glyph-name="uniFA5E" unicode="&#xfe01;" 
d="M1252 755q-75 -1 -134 -3l-40 -1q-17 0 -20 4t-3 18v159q0 16 4 19t19 3q2 0 22 -1q68 -2 152 -3v47q0 136 -13 207q133 -4 207 -14q31 -4 31 -21q0 -12 -12 -31q-13 -21 -13 -133v-55h215l242 4q16 0 20 -4q3 -4 3 -18v-159q0 -15 -4 -18.5t-19 -3.5l-242 4h-215v-29
l4 -204q0 -16 -3.5 -19.5t-18.5 -3.5h-164q-16 0 -20 4q-3 4 -3 19l5 204v29zM566 950v47q0 136 -13 207q133 -3 207 -14q31 -4 31 -21q0 -12 -12 -30q-13 -22 -13 -133v-56l185 4q16 0 19 -4t3 -18v-158q0 -16 -4 -19t-18 -3l-185 4v-29l4 -205q0 -16 -4 -19t-18 -3h-164
q-17 0 -20 4t-3 18l5 205v29h-189l-237 -4q-17 0 -20 4t-3 18v158q0 16 4 19t19 3l237 -4h189z" />
    <glyph glyph-name="uniFA5D" unicode="&#xe0101;" 
d="M637 755h-307l-190 -4q-17 0 -20 4t-3 18v159q0 16 4 19t19 3l190 -4h307v47q0 136 -12 207q132 -4 207 -14q31 -4 31 -21q0 -12 -13 -31q-12 -21 -12 -133v-279l4 -204q0 -17 -4 -20t-19 -3h-163q-17 0 -20 4t-3 19l4 204v29zM1395 950h319l195 4q16 0 19 -4t3 -18v-159
q0 -15 -3.5 -18.5t-18.5 -3.5l-195 4h-319v-29l4 -204q0 -16 -3.5 -19.5t-19.5 -3.5h-164q-16 0 -19 4t-3 19l4 204v271q0 136 -12 207q132 -4 206 -14q31 -4 31 -21q0 -12 -12 -31q-12 -21 -12 -133v-55z" />
    <glyph glyph-name="uniFA5D" unicode="&#xfe00;" 
d="M637 755h-307l-190 -4q-17 0 -20 4t-3 18v159q0 16 4 19t19 3l190 -4h307v47q0 136 -12 207q132 -4 207 -14q31 -4 31 -21q0 -12 -13 -31q-12 -21 -12 -133v-279l4 -204q0 -17 -4 -20t-19 -3h-163q-17 0 -20 4t-3 19l4 204v29zM1395 950h319l195 4q16 0 19 -4t3 -18v-159
q0 -15 -3.5 -18.5t-18.5 -3.5l-195 4h-319v-29l4 -204q0 -16 -3.5 -19.5t-19.5 -3.5h-164q-16 0 -19 4t-3 19l4 204v271q0 136 -12 207q132 -4 206 -14q31 -4 31 -21q0 -12 -12 -31q-12 -21 -12 -133v-55z" />
    <glyph glyph-name="uni864E" unicode="&#xe0100;" 
d="M1540 994q75 75 118 147h-1177v-236q0 -337 -49 -571q-55 -256 -195 -446q-24 -33 -39 -33q-12 0 -36 37q-54 83 -113 123q134 157 186 403q43 186 43 528l-4 351q0 16 4 19t19 3l307 -4h270v215q0 123 -14 200q124 -3 225 -14q25 -3 25 -22q0 -5 -11 -35
q-10 -21 -10 -76h309l252 4q16 0 20 -4q3 -4 3 -18v-132q0 -16 -5 -19q-3 -3 -18 -3l-252 4h-309v-100h631q20 0 37 8q17 10 26 10q22 0 87 -59q59 -60 59 -80q0 -15 -16 -29q-16 -12 -35 -44q-67 -109 -113 -166q-30 -39 -41 -39q-12 0 -49 24q-49 33 -135 54zM1446 1022h9
q11 0 13 -21l13 -121v-8q0 -14 -23 -14q-24 0 -248 -17l-170 -12v-29q0 -38 8 -50t29 -15q51 -10 221 -10q143 0 192 7q41 7 64 26q28 20 36 48q6 20 9 74q52 -27 142 -51q33 -7 40 -12q9 -6 9 -19q0 -7 -4 -36q-17 -113 -97 -158q-89 -49 -387 -49q-316 0 -401 33
q-66 27 -66 133v92h-8q-239 -20 -241 -20q-7 -1 -10 -1q-15 0 -17 21l-10 119q-1 6 -1 9q0 13 23 15q78 0 246 12h18v25q0 52 -10 121q125 -4 207 -12q29 -4 29 -21q0 -7 -5 -17q-6 -12 -7 -16q-9 -19 -9 -55v-8l160 14q76 6 246 23zM1747 270q72 -37 153 -53q32 -6 40 -13
q8 -6 8 -22q0 -8 -3 -32q-11 -112 -34 -163q-19 -43 -62 -75q-73 -53 -334 -53q-212 0 -282 29q-78 31 -78 151v244q0 118 -12 211q75 -2 210 -15q35 -3 35 -22q0 -13 -12 -37q-12 -25 -12 -113v-174q0 -65 37 -71q45 -10 139 -10q130 0 166 27q38 32 41 191zM358 -8
q211 47 311 147q74 73 99 187q13 61 13 117q0 25 -3 59q111 -10 199 -21q39 -7 39 -24t-15 -39q-4 -9 -10 -41q-8 -45 -12 -66q-39 -186 -140 -296q-95 -103 -274 -175q-34 -14 -49 -14q-18 0 -41 43q-37 66 -117 123z" />
    <glyph glyph-name="uni8864" unicode="&#xe0100;" 
d="M1281 697q93 84 168 193q25 33 53 100q97 -60 150 -107q19 -16 19 -32q0 -13 -27 -25q-20 -9 -45 -41q-83 -103 -185 -192q142 -101 250 -156q-53 -43 -100 -109q-31 -43 -43 -43q-11 0 -45 25q-199 137 -348 299v-512l4 -238q0 -16 -5 -19q-3 -3 -18 -3h-166
q-16 0 -19 4t-3 18l4 238v494q-214 -181 -406 -293q-37 -21 -43 -21q-13 0 -37 45q-34 58 -98 109q289 153 536 363q244 207 378 415h-476l-264 -4q-16 0 -19 4t-3 18v152q0 16 4 19t18 3l264 -4h148v68q0 156 -17 249q114 -3 214 -14q33 -3 33 -22q0 -15 -13 -43
q-14 -29 -14 -160v-78h211q22 0 39 10q12 8 30 8q24 0 80 -59q50 -55 50 -74q0 -14 -27 -37q-29 -24 -53 -61q-119 -187 -297 -368q44 -52 118 -119z" />
    <glyph glyph-name="uni8980" unicode="&#xe0100;" 
d="M459 315v-84q0 -16 -4 -20q-4 -3 -19 -3h-161q-17 0 -20 5q-3 3 -3 18l4 334v143l-4 219q0 17 4 20t19 3l289 -4h127v176h-295l-263 -4q-16 0 -19 4t-3 18v159q0 16 4 19t18 3l263 -4h1255l262 4q16 0 19 -4t3 -18v-159q0 -16 -4 -19q-3 -3 -18 -3l-262 4h-326v-176h148
l288 4q17 0 20 -4t3 -19l-4 -184v-174l4 -332q0 -15 -3.5 -18.5t-19.5 -3.5h-163q-17 0 -20 4t-3 18v78h-1116zM1325 497h250v271h-250v-271zM1126 497v271h-234v-271h234zM691 497v271h-232v-271h232zM892 946h234v176h-234v-176z" />
    <glyph glyph-name="uni897F" unicode="&#xe0100;" 
d="M396 1394l-256 -4q-17 0 -20 4t-3 18v167q0 16 4 19t19 3l256 -4h1259l256 4q16 0 20 -4q3 -4 3 -18v-167q0 -16 -5 -19q-3 -3 -18 -3l-256 4h-356v-245h215l280 4q16 0 20 -4q3 -4 3 -19l-4 -366v-350l4 -524q0 -16 -4 -20q-4 -3 -19 -3h-174q-16 0 -19 5q-3 3 -3 18v92
h-1147v-98q0 -16 -4 -20q-4 -3 -19 -3h-174q-16 0 -19 4t-3 19l4 526v309l-4 411q0 17 4 20t18 3l281 -4h176v245h-315zM451 956v-777h1147v777h-299v-251v-36q0 -25 6 -32q10 -10 45 -10q34 0 47 10q14 15 14 213q52 -27 101 -45q33 -12 41 -23q9 -13 9 -48q0 -13 -1 -35
q-8 -177 -64 -223q-49 -39 -149 -39q-131 0 -185 27q-38 20 -51 53q-14 34 -14 104v335h-192q-17 -210 -74 -348q-54 -131 -156 -232q-31 -31 -45 -31t-49 33q-52 49 -121 81q123 98 179 229q46 106 61 268h-250zM914 1149h184v245h-184v-245z" />
    <glyph glyph-name="uni2EC6" unicode="&#xe0100;" 
d="M93 1135q327 166 524 462q37 59 62 131q74 -12 196 -43q31 -10 31 -32q0 -19 -25 -37q-29 -24 -55 -64h381q29 0 45 6q19 8 31 8q20 0 83 -53q56 -50 56 -70q0 -19 -31 -35q-26 -13 -65 -63q-46 -59 -103 -128h236l284 4q16 0 20 -4q3 -4 3 -19l-4 -225v-596l4 -291
q0 -113 -66 -164q-65 -53 -278 -53q-46 0 -56 10q-10 9 -20 53q-17 81 -55 154q107 -12 172 -12q56 0 76 19q18 17 18 61v190h-403v-127l4 -287q0 -16 -5 -19q-4 -3 -20 -3h-166q-16 0 -19 4t-3 18l4 287v127h-409q-59 -250 -226 -454q-28 -35 -41 -35q-11 0 -47 33
q-77 70 -135 98q171 164 233 363q54 170 54 447v270q-82 -58 -127 -87q-30 -20 -43 -20q-14 0 -35 47q-37 83 -80 129zM1154 516h403v180h-403v-180zM1557 1043h-403v-177h403v177zM558 1217h424q43 53 116 167h-389q-62 -81 -151 -167zM570 516h379v180h-366
q-4 -121 -13 -180zM585 866h364v177h-364v-177z" />
    <glyph glyph-name="u27FB7" unicode="&#xe0100;" 
d="M967 195v809h-74l-228 -4q-16 0 -19 4t-3 18l4 179v239l-4 178q0 16 4 19t18 3l228 -4h285l227 4q17 0 20 -4t3 -18l-4 -178v-239l4 -179q0 -16 -4 -19t-19 -3l-227 4h-10v-260h133l148 4q16 0 19 -4t3 -19v-141q0 -16 -4 -19t-18 -3l-148 4h-133v-320q175 49 338 105
q-7 -39 -7 -98q0 -20 1 -35v-23q0 -23 -10 -31q-7 -6 -38 -16q-342 -114 -748 -213q-56 -13 -75 -29q-20 -16 -35 -16q-23 0 -33 27q-32 76 -61 190q65 5 141 18v514q0 124 -12 193q108 -3 200 -16q31 -4 31 -19q0 -10 -12 -39q-10 -27 -10 -119v-475zM842 1460v-284h387
v284h-387z" />
    <glyph glyph-name="uniFA66" unicode="&#xe0101;" 
d="M2003 152q-38 -54 -58 -168q-8 -48 -18 -56q-9 -6 -51 -8q-379 -20 -721 -20q-275 0 -420 59q-125 55 -199 182q-131 -108 -262 -188q-31 -20 -39 -33q-14 -20 -30 -20t-29 27q-35 66 -86 198q57 22 123 53q124 59 223 137v430h-127l-160 -4q-16 0 -19 4t-3 19v160
q0 16 4 19t18 3l160 -4h150l163 4q17 0 20 -4t3 -18l-4 -193v-416q49 -118 168 -167q108 -43 311 -43q411 0 883 47zM631 1358q6 -10 6 -17q0 -9 -12 -18l-138 -106q-10 -8 -15 -8q-7 0 -15 13q-112 184 -254 322q-9 9 -9 15t11 14l131 92q10 8 17 8q8 0 18 -10
q155 -142 260 -305z" />
    <glyph glyph-name="uniFA66" unicode="&#xfe00;" 
d="M2003 152q-38 -54 -58 -168q-8 -48 -18 -56q-9 -6 -51 -8q-379 -20 -721 -20q-275 0 -420 59q-125 55 -199 182q-131 -108 -262 -188q-31 -20 -39 -33q-14 -20 -30 -20t-29 27q-35 66 -86 198q57 22 123 53q124 59 223 137v430h-127l-160 -4q-16 0 -19 4t-3 19v160
q0 16 4 19t18 3l160 -4h150l163 4q17 0 20 -4t3 -18l-4 -193v-416q49 -118 168 -167q108 -43 311 -43q411 0 883 47zM631 1358q6 -10 6 -17q0 -9 -12 -18l-138 -106q-10 -8 -15 -8q-7 0 -15 13q-112 184 -254 322q-9 9 -9 15t11 14l131 92q10 8 17 8q8 0 18 -10
q155 -142 260 -305z" />
    <glyph glyph-name="uni8FB6" unicode="&#xe0100;" 
d="M2008 145q-36 -52 -56 -166q-8 -48 -18 -56q-9 -6 -51 -9q-402 -23 -654 -23q-340 0 -479 60q-126 54 -203 176q-97 -81 -252 -178q-32 -21 -43 -37q-13 -23 -32 -23q-17 0 -29 25q-32 62 -80 190q74 29 123 56q115 61 213 135v280h-131l-160 -4q-16 0 -19 4t-3 19v151
q0 17 4 20t18 3l160 -4h149l164 4q16 0 20 -4q3 -4 3 -19l-4 -157v-283q28 -66 65 -101q40 -38 109 -65q110 -45 395 -45q361 0 791 51zM660 1491q10 -9 10 -16q0 -6 -8 -17l-97 -127q-7 -11 -15 -11q-7 0 -15 9q-150 137 -266 205q-13 6 -13 13q0 5 8 16l92 112
q10 12 18 12q6 0 17 -8q154 -91 269 -188zM598 1049q12 -10 12 -17q0 -6 -8 -16l-96 -131q-8 -11 -14 -11t-15 9q-151 142 -290 219q-13 6 -13 12q0 4 8 14l95 115q9 13 19 13q6 0 15 -5q137 -72 287 -202z" />
    <glyph glyph-name="uni961D" unicode="&#xe0100;" 
d="M1288 1624q43 0 62 6q18 6 31 6q21 0 92 -65q57 -58 57 -80q0 -20 -23 -39q-21 -19 -45 -75q-93 -227 -213 -441q170 -141 231 -253q52 -96 52 -224q0 -330 -416 -361q-22 -1 -29 -1q-23 0 -30 13q-4 9 -10 46q-20 94 -62 156q179 -2 248 40q61 37 61 121q0 112 -71 210
q-67 94 -224 212q143 249 248 543h-354v-1151l4 -424q0 -16 -4 -19t-18 -3h-183q-15 0 -18.5 3.5t-3.5 18.5l4 422v895l-4 425q0 17 4 20t19 3l208 -4h387z" />
    <glyph glyph-name="uni9577" unicode="&#xe0100;" 
d="M394 596l-259 -4q-20 0 -20 22v152q0 22 20 22l259 -4h61v594l-4 231q0 17 4 20t19 3l282 -4h684l278 4q18 0 22 -4q3 -4 3 -18v-150q0 -14 -5 -17q-4 -3 -20 -3l-278 4h-768v-115h682l266 4q16 0 20 -5q3 -4 3 -19v-120q0 -16 -5 -19q-3 -3 -18 -3l-266 4h-682v-112h682
l264 4q18 0 21 -4q4 -5 4 -21v-119q0 -16 -5 -19q-4 -3 -20 -3l-264 4h-682v-117h983l256 4q18 0 21 -4q4 -4 4 -18v-152q0 -15 -4 -18.5t-21 -3.5l-256 4h-578q83 -151 215 -258q124 85 209 168q42 38 66 84q117 -74 163 -109q21 -14 21 -30q0 -17 -24 -21q-33 -11 -72 -43
q-113 -89 -209 -149q226 -124 537 -177q-54 -59 -88 -141q-28 -57 -49 -57q-10 0 -44 8q-685 179 -929 725h-201v-438q219 51 383 98q-8 -49 -8 -129q0 -51 -10 -62q-8 -9 -54 -22q-333 -100 -653 -168q-51 -10 -72 -27q-15 -12 -30 -12q-13 0 -25 27q-25 71 -57 198
q125 12 219 31l90 19v485h-61z" />
    <glyph glyph-name="uni9578" unicode="&#xe0100;" 
d="M455 692v676l-4 241q0 17 4 20t19 3l288 -4h674l285 4q16 0 19 -4t3 -18v-150q0 -16 -4 -19t-18 -3l-285 4h-764v-133h688l264 4q17 0 20 -4t3 -18v-132q0 -16 -4 -19t-19 -3l-264 4h-688v-137h688l264 4q17 0 20 -4t3 -19v-131q0 -16 -4 -19t-19 -3l-264 4h-688v-144
h979l262 4q16 0 20 -4q3 -4 3 -18v-152q0 -15 -3.5 -18.5t-19.5 -3.5l-262 4h-723q-92 -216 -174 -365q206 12 422 31l239 25q-60 69 -122 135q-9 9 -9 14q0 6 13 12l133 78q10 5 16 5q10 0 21 -11q198 -192 387 -461q6 -9 6 -14q0 -7 -12 -16l-154 -97q-9 -6 -15 -6
q-8 0 -16 14q-52 91 -123 187q-587 -89 -1151 -125q-52 -2 -73 -17q-29 -16 -43 -16q-23 0 -33 33q-20 72 -41 213q70 -2 114 -2q45 0 99 2q15 1 47 2q27 1 41 2q97 168 186 377h-286l-262 -4q-17 0 -20 4t-3 18v152q0 16 4 19t19 3l262 -4h55z" />
    <glyph glyph-name="uni2ED7" unicode="&#xe0101;" 
d="M915 1049v111h-342l-284 -4q-16 0 -20 4q-3 4 -3 18v154q0 16 4 19t19 3l284 -4h910l284 4q17 0 20 -4t3 -18v-154q0 -16 -4 -19t-19 -3l-284 4h-361v-111h496l272 4q17 0 20 -4t3 -18l-4 -131v-121l4 -266q0 -16 -3.5 -19.5t-19.5 -3.5h-162q-16 0 -19 4t-3 19v362h-584
v-295l4 -231q0 -16 -3.5 -19.5t-18.5 -3.5h-171q-16 0 -19 4t-3 19l4 231v295h-573v-362q0 -17 -4 -20t-19 -3h-161q-17 0 -20 4t-3 19l4 266v94l-4 158q0 16 4 19t19 3l272 -4h485zM581 633l-120 -4q-16 0 -20 4q-3 4 -3 18v105q0 16 4 19t19 3l120 -4h95l121 4q16 0 19 -4
t3 -18v-105q0 -16 -4 -19t-18 -3l-121 4h-95zM581 393l-120 -4q-17 0 -20 4t-3 19v104q0 17 4 20t19 3l120 -4h95l121 4q16 0 19 -4t3 -19v-104q0 -17 -4 -20t-18 -3l-121 4h-95zM1366 633l-125 -4q-16 0 -20 4q-3 4 -3 18v105q0 16 5 19q3 3 18 3l125 -4h96l125 4
q16 0 20 -4q3 -4 3 -18v-105q0 -15 -4 -18.5t-19 -3.5l-125 4h-96zM1366 393l-125 -4q-16 0 -20 4q-3 4 -3 19v104q0 16 3.5 19.5t19.5 3.5l125 -4h96l125 4q16 0 20 -4q3 -4 3 -19v-104q0 -16 -3.5 -19.5t-19.5 -3.5l-125 4h-96z" />
    <glyph glyph-name="uni9752" unicode="&#xe0100;" 
d="M1133 55q106 -8 200 -8q42 0 57 18q13 15 13 50v61h-760v-92l4 -221q0 -16 -4 -20q-4 -3 -19 -3h-170q-16 0 -19 4t-3 19l4 219v467l-4 225q0 17 4 20t18 3l277 -4h584l276 4q18 0 22 -4q3 -4 3 -19l-4 -241v-228l4 -240q0 -111 -53 -162q-53 -49 -289 -49q-52 0 -62 7
q-10 9 -20 53q-19 87 -59 141zM1403 639h-760v-94h760v94zM643 313h760v95h-760v-95zM400 882l-258 -4q-23 0 -23 20v126q0 16 4 19t19 3l258 -4h499v94h-243l-281 -4q-16 0 -20 4q-3 4 -3 19v112q0 16 5 19q3 2 18 2l281 -2h243v90h-356l-277 -4q-16 0 -19 5q-3 4 -3 19
v122q0 16 4 19t18 3l277 -4h356q0 124 -14 188q127 -3 221 -14q31 -3 31 -20q0 -14 -10 -41q-13 -25 -13 -113h391l277 4q16 0 20 -4q3 -4 3 -18v-122q0 -17 -5 -21q-3 -3 -18 -3l-277 4h-391v-90h285l279 2q18 0 21 -3t3 -18v-112q0 -17 -4 -20q-5 -3 -20 -3l-279 4h-285
v-94h537l258 4q16 0 19 -4t3 -18v-126q0 -20 -22 -20l-258 4h-1251z" />
    <glyph glyph-name="uni2EDD" unicode="&#xe0101;" 
d="M1597 1059q2 -8 2 -18l-4 -185v-238q0 -97 2 -128q37 -19 155 -99q25 -17 25 -32q0 -17 -29 -27q-32 -10 -67 -37q-74 -56 -209 -145q192 -76 477 -113q-46 -62 -78 -143q-20 -55 -41 -55q-10 0 -45 8q-447 98 -694 315q-6 -34 -10 -102q-2 -42 -10 -50q-7 -7 -43 -14
q-357 -76 -692 -129q-55 -9 -82 -25q-21 -12 -35 -12q-15 0 -25 31q-19 72 -39 201q66 1 220 14l57 6v696l-4 258q-94 -59 -215 -119q-36 -16 -45 -16q-14 0 -37 49q-40 90 -82 135q479 198 786 541q43 48 80 119q116 -13 215 -39q35 -7 35 -23q0 -13 -20 -24l-7 -4
q312 -353 869 -539q-46 -52 -78 -144q-20 -51 -35 -51q-14 0 -45 14q-133 56 -252 124zM1587 1065q-148 81 -295 198v-92q0 -16 -4 -19t-19 -3l-174 4h-174l-174 -4q-16 0 -19 4t-3 18v74q-153 -122 -250 -180q86 -4 276 -4h533l293 4h10zM1292 240q137 90 225 168l4 4
l-237 2h-189q90 -106 197 -174zM872 414h-229v-305q197 26 424 76q-95 87 -195 229zM1020 1532q-109 -126 -219 -222q26 -2 120 -2h174l140 2q-117 102 -215 222zM643 907v-90h749v90h-749zM643 568h749v99h-749v-99z" />
    <glyph glyph-name="u2967F" unicode="&#xe0100;" 
d="M1242 1308v-108q0 -16 -4 -20q-4 -3 -18 -3l-119 4h-90l-119 -4q-16 0 -19 4t-3 19v98q-105 -96 -244 -194q67 -4 244 -4h340l216 4q17 0 20 -4t3 -18l-4 -179v-211l4 -178q0 -16 -4 -19t-19 -3l-216 4h-418v-90h469l215 4q16 0 19 -4t3 -19v-117q0 -15 -3.5 -18.5
t-18.5 -3.5l-215 4h-469v-92h487l221 4q16 0 20 -4q3 -4 3 -18v-118q0 -15 -3.5 -18.5t-19.5 -3.5l-221 4h-487q1 -58 3 -111l1 -36q0 -16 -4 -20q-4 -3 -19 -3h-164q-16 0 -19 5q-3 3 -3 18l4 270v678l-4 271q-22 -16 -41 -27q-36 -23 -47 -23q-13 0 -37 45
q-40 62 -102 108q169 89 329 225q138 117 205 216q36 51 51 102q102 -12 205 -31q37 -6 37 -26q0 -21 -25 -29l-6 -4q176 -206 434 -334q-40 -37 -77 -102q-27 -45 -39 -45q-6 0 -43 21q-105 63 -189 134zM1218 1329q-88 73 -162 166q-61 -77 -154 -166q29 -4 109 -4h90z
M792 961v-93h463v93h-463zM792 637h463v96h-463v-96z" />
    <glyph glyph-name="uni98E0" unicode="&#xe0100;" 
d="M938 1134v64q0 84 -10 133q90 0 196 -10q29 -3 29 -23q0 -7 -5 -20q-7 -15 -7 -17q-8 -24 -8 -63v-64h79l213 4q17 0 20 -4t3 -19l-4 -190v-260l4 -190q0 -16 -3.5 -19.5t-19.5 -3.5l-213 4h-395v-295q212 43 363 84q-31 37 -61 68q-10 9 -10 15q0 7 11 13l127 74
q9 7 16 7q9 0 19 -11q152 -158 302 -395q6 -9 6 -15q0 -7 -13 -16l-123 -90q-10 -7 -16 -7q-8 0 -14 13q-67 113 -128 195q-347 -99 -663 -172q-56 -14 -78 -27q-25 -14 -35 -14q-29 0 -37 27q-17 59 -45 194q81 5 172 18v734q0 160 -4 237q-34 -23 -66 -41q-37 -20 -45 -20
q-11 0 -34 49q-29 59 -84 115q335 158 522 424q26 37 45 92q60 -8 192 -29q35 -6 35 -26t-22 -29l-10 -6q149 -166 448 -318q-51 -32 -96 -110q-24 -45 -39 -45q-9 0 -47 22q-233 140 -373 309q-141 -184 -360 -344l213 -2h53zM1243 987h-426v-117h426v117zM1243 725h-426
v-119h426v119z" />
    <glyph glyph-name="uni9B3C" unicode="&#xe0100;" 
d="M1712 496q78 -100 133 -217q6 -13 6 -18q0 -6 -24 -21l-13 -8q40 -20 95 -31q46 -8 46 -47q0 -9 -1 -21q-18 -141 -91 -190q-54 -37 -146 -50q-97 -14 -294 -14q-279 0 -364 41q-74 34 -74 156v557h-129q-22 -326 -191 -514q-138 -154 -401 -246q-47 -14 -54 -14
q-17 0 -43 43q-40 70 -104 127q317 76 445 213q126 136 139 391h-27l-284 -4q-17 0 -20 4t-3 19l4 208v396l-4 211q0 16 4 19t19 3l284 -4h162q28 53 57 131q26 70 31 113q133 -14 217 -31q25 -6 25 -25q0 -17 -16 -30q-22 -19 -31 -43q-41 -91 -55 -115h403l284 4
q17 0 20 -4t3 -18l-4 -211v-396l4 -208q0 -16 -3.5 -19.5t-19.5 -3.5l-284 4h-221v-465q0 -73 31 -89q25 -14 200 -14q265 0 303 29q35 28 41 111l-24 -14q-12 -7 -19 -7q-10 0 -18 19l-15 35q-142 -39 -331 -72q-31 -4 -51 -21q-17 -12 -27 -12q-16 0 -23 35
q-23 89 -34 143q41 0 61 2q27 66 66 179q18 54 24 118q116 -17 170 -30q21 -7 21 -23q0 -15 -19 -28q-8 -9 -26 -50q-22 -59 -62 -143l168 31q-15 28 -49 73q-8 11 -8 16q0 6 22 17l78 37q11 5 18 5q10 0 23 -19zM1511 799v180h-403v-180h403zM520 799h387v180h-387v-180z
M1511 1313h-403v-172h403v172zM520 1141h387v172h-387v-172z" />
    <glyph glyph-name="uni9EA6" unicode="&#xe0100;" 
d="M397 793l-258 -4q-21 0 -21 22v132q0 22 21 22l258 -4h506v118h-240l-280 -4q-17 0 -20 4t-3 18v128q0 17 4 21q4 3 19 3l280 -4h240v117h-365l-276 -4q-16 0 -20 5q-3 4 -3 20v129q0 17 4 21q4 3 19 3l276 -4h365q0 122 -15 184q126 -3 219 -14q33 -3 33 -20
q0 -19 -12 -43q-12 -28 -12 -107h389l276 4q17 0 20 -5q3 -4 3 -19v-129q0 -18 -4 -22q-4 -3 -19 -3l-276 4h-389v-117h270l281 4q17 0 21 -5q3 -4 3 -19v-128q0 -16 -4 -19t-20 -3l-281 4h-270v-118h532l258 4q16 0 20 -4q3 -4 3 -18v-132q0 -15 -3.5 -18.5t-19.5 -3.5
l-258 4h-674q-55 -81 -100 -131h514q27 0 45 6q21 8 25 8q22 0 78 -55q59 -60 59 -80q0 -17 -25 -33q-13 -7 -69 -63q-122 -134 -266 -236q269 -111 737 -147q-46 -55 -76 -148q-13 -40 -20 -48q-8 -10 -27 -10q-10 0 -37 3q-467 60 -778 227q-328 -171 -770 -235
q-33 -4 -41 -4q-19 0 -28 14q-7 9 -21 43q-27 63 -74 125q462 48 752 172q-137 104 -238 225q-145 -109 -328 -193q-36 -18 -51 -18q-12 0 -39 41q-40 64 -92 113q429 159 639 424h-346zM1288 498h-492q126 -122 250 -195q127 77 242 195z" />
    <glyph glyph-name="uni9EC4" unicode="&#xe0100;" 
d="M371 1028l-252 -4q-20 0 -20 22v132q0 22 20 22l252 -4h252v135h-88l-276 -4q-18 0 -22 5q-3 4 -3 20v127q0 16 5 19q4 3 20 3l276 -4h88v12q0 137 -12 201q140 -4 211 -12q29 -4 29 -19q0 -6 -13 -35q-10 -23 -10 -135v-12h373v10q0 137 -12 203q103 -3 210 -12
q29 -4 29 -19q0 -9 -5 -20q-7 -15 -7 -17q-10 -24 -10 -133v-12h114l277 4q18 0 21 -4q4 -4 4 -18v-127q0 -18 -5 -22q-4 -3 -20 -3l-277 4h-114v-135h272l254 4q21 0 21 -22v-132q0 -22 -21 -22l-254 4h-563v-127h289l284 4q16 0 20 -4q3 -4 3 -18l-4 -188v-291l4 -189
q0 -15 -3.5 -18.5t-19.5 -3.5l-284 4h-56l15 -6q219 -129 559 -182q-57 -54 -98 -121q-32 -49 -50 -49q-17 0 -47 8q-288 61 -536 225q-13 9 -13 16t21 21l121 78q3 1 10 6q5 3 8 4h-655q93 -45 157 -84q27 -16 27 -33q0 -20 -33 -26q-24 -7 -80 -39q-200 -119 -450 -174
q-27 -6 -41 -6q-18 0 -28 10q-6 7 -23 37q-40 69 -90 123q289 46 450 126q68 35 105 66h-29l-285 -4q-16 0 -19 4t-3 18l4 189v291l-4 188q0 16 4 19t18 3l285 -4h266v127h-543zM1502 342v140h-387v-140h387zM1502 756h-387v-135h387v135zM550 342h364v140h-364v-140z
M828 1196h373v135h-373v-135zM550 621h364v135h-364v-135z" />
    <glyph glyph-name="uni6589" unicode="&#xe0100;" 
d="M125 -41q191 134 266 307q65 144 68 528q-152 -27 -242 -38q-29 -4 -39 -4q-20 0 -28 14q-6 10 -17 45q-26 88 -59 135q421 28 733 127q-170 110 -293 273h-98l-260 -4q-16 0 -20 4q-3 4 -3 18v146q0 16 5 19q3 3 18 3l260 -4h496v4q0 120 -17 188q143 -3 219 -12
q33 -3 33 -20q0 -1 -14 -39q-8 -25 -8 -121h510l260 4q16 0 19 -4t3 -18v-146q0 -16 -4 -19t-18 -3l-260 4h-105q-110 -151 -287 -269q251 -74 729 -108q-34 -48 -59 -144q-10 -39 -17.5 -49t-26.5 -10q-10 0 -40 4q-148 18 -233 33v-688l4 -252q0 -15 -5 -18q-4 -3 -20 -3
h-172q-22 0 -22 21l4 252v106h-776q-75 -219 -248 -368q-34 -31 -45 -31q-14 0 -47 37q-71 70 -144 100zM645 399h740v160h-721q-6 -86 -19 -160zM672 842q0 -72 -2 -105h715v109q-205 47 -361 115q-156 -70 -352 -119zM1268 1346h-496q110 -116 250 -185q159 80 246 185z
" />
    <glyph glyph-name="uni6B6F" unicode="&#xe0100;" 
d="M1606 1008q121 -4 212 -15q27 -3 27 -22q0 -12 -12 -41q-8 -25 -8 -137v-596l4 -334q0 -16 -4 -19t-18 -3h-167q-16 0 -19 4t-3 18v78h-1188v-74q0 -17 -4 -21q-4 -3 -19 -3h-164q-16 0 -19 4t-3 20l4 324v604q0 123 -14 215q121 -3 212 -15q27 -2 27 -22q0 -10 -12 -39
q-8 -25 -8 -139v-674h1188v670q0 138 -12 217zM401 1098l-258 -4q-16 0 -19 4t-3 18v144q0 16 4 19t18 3l258 -4h52v113q0 159 -17 227q128 -4 221 -15q35 -3 35 -24q0 -18 -14 -41q-12 -20 -12 -112v-148h274v217q0 165 -14 231q121 -6 219 -18q33 -7 33 -21t-13 -38
q-12 -20 -12 -86h313l256 4q21 0 21 -22v-132q0 -22 -21 -22l-256 4h-313v-117h500l258 4q16 0 19 -4t3 -18v-144q0 -16 -4 -19t-18 -3l-258 4h-1252zM789 573l-258 -4q-21 0 -21 23v110q0 23 21 23l258 -4h141v98q0 92 -12 228q99 -3 180 -13q31 -3 31 -22q0 -3 -13 -51
q-8 -33 -8 -142v-98h150l260 4q20 0 20 -23v-110q0 -23 -20 -23l-260 4h-54q133 -147 379 -227q-42 -39 -80 -104q-23 -41 -43 -41q-14 0 -45 18q-204 111 -313 260q2 -79 7 -197q3 -79 3 -92q0 -15 -3.5 -18.5t-18.5 -3.5h-142q-16 0 -19 4t-3 18q0 6 4 112q3 97 4 177
q-120 -168 -307 -260q-41 -20 -53 -20q-15 0 -39 39q-31 53 -76 88q236 92 367 247h-37zM1200 799q64 86 101 153q20 40 28 78q89 -31 143 -55q25 -11 25 -23q0 -15 -16 -28t-31 -37q-44 -67 -78 -109q-28 -35 -39 -35q-10 0 -49 23q-23 14 -84 33zM731 1010
q45 -58 102 -172q5 -11 5 -16q0 -10 -23 -21l-94 -47q-16 -8 -24 -8q-12 0 -21 20q-47 103 -99 176q-6 10 -6 15q0 7 21 18l98 47q13 6 20 6q9 0 21 -18z" />
    <glyph glyph-name="uni7ADC" unicode="&#xe0100;" 
d="M1743 332q39 -27 154 -59q35 -8 42 -16q8 -7 8 -29q0 -8 -1 -23q-9 -120 -35 -178q-21 -49 -65 -81q-57 -42 -168 -56q-92 -12 -273 -12q-321 0 -407 29q-93 35 -93 182v147h-358v-90q0 -16 -3.5 -19.5t-19.5 -3.5h-166q-16 0 -19 5q-3 3 -3 18l4 201v366l-4 205
q0 16 4 19t18 3l310 -4h694l316 4q16 0 19 -4t3 -18l-4 -201v-262l4 -198q0 -17 -3.5 -21t-18.5 -4l-316 4h-248v-78q0 -67 39 -76q66 -16 269 -16q191 0 264 33q36 20 48 72q10 48 9 161zM1487 392v122h-373v-122h373zM547 392h358v122h-358v-122zM1487 780h-373v-116h373
v116zM547 664h358v116h-358v-116zM398 1028l-259 -4q-20 0 -20 22v131q0 18 4 22q3 3 16 3l259 -4h223q-34 92 -74 166l-266 -4q-18 0 -22 4q-3 4 -3 18v132q0 16 5 19q4 3 20 3l278 -4h342v25q0 93 -14 161q88 0 227 -8q33 -3 33 -22q0 -9 -5 -21q-6 -14 -7 -18
q-10 -31 -10 -90v-27h370l279 4q16 0 19 -4t3 -18v-132q0 -16 -4 -19t-18 -3l-279 4h-12q-1 -1 -23 -39q-18 -40 -63 -127h252l256 4q16 0 19 -5q3 -4 3 -20v-131q0 -16 -4 -19t-18 -3l-256 4h-1251zM1260 1364h-492q40 -83 66 -166h358q27 55 68 166z" />
    <glyph glyph-name="uni4E80" unicode="&#xe0100;" 
d="M1791 258q63 -35 146 -52q31 -6 39 -12q9 -6 9 -22q0 -7 -3 -31q-17 -173 -113 -229q-102 -59 -424 -59q-350 0 -438 35q-57 25 -77 68q-22 46 -22 142v45h-460v-65q0 -16 -3.5 -19.5t-19.5 -3.5h-158q-16 0 -19 4t-3 19l4 178v261l-4 182q0 16 4 19t18 3l306 -4h335v88
h-243l-283 -4q-16 0 -19 5q-3 4 -3 20l4 147v233q-60 -40 -119 -74q-38 -20 -48 -20q-15 0 -32 49q-27 72 -72 117q317 142 492 364q37 47 59 100q135 -22 193 -34q29 -9 29 -31q0 -14 -25 -27q-19 -10 -51 -53h352q31 0 45 6q16 6 29 6q22 0 67 -43q56 -47 56 -63
q0 -20 -23 -33q-22 -12 -51 -49q-30 -38 -74 -86h182l283 4q16 0 20 -4q3 -4 3 -19l-5 -155v-188l5 -147q0 -18 -5 -22q-3 -3 -18 -3l-283 4h-270v-88h311l324 4q21 0 21 -22l-5 -176v-183l5 -178q0 -23 -21 -23l-324 4h-311v-12q0 -46 12 -65q11 -17 41 -27q53 -18 281 -18
q237 0 297 39q34 21 45 69q7 35 12 129zM540 1335h420q41 46 88 115h-385q-60 -63 -123 -115zM448 274h460v99h-460v-99zM1558 274v99h-455v-99h455zM448 492h460v96h-460v-96zM1558 588h-455v-96h455v96zM1478 928v90h-375v-90h375zM1478 1214h-375v-90h375v90zM556 1124
h352v90h-352v-90zM556 928h352v90h-352v-90z" />
    <glyph glyph-name="uni4E00" unicode="&#xe0100;" 
d="M406 687l-260 -4q-23 0 -23 20v199q0 20 23 20l260 -4h1234l261 4q22 0 22 -20v-199q0 -20 -22 -20l-261 4h-1234z" />
    <glyph glyph-name="uni4E28" unicode="&#xe0100;" 
d="M887 1663q136 -4 248 -17q33 -3 33 -26q0 -16 -12 -43q-15 -35 -15 -215v-1098l4 -357q0 -20 -22 -20h-200q-17 0 -21 4q-3 3 -3 16l4 355v1091q0 193 -16 310z" />
    <glyph glyph-name="uni4E36" unicode="&#xe0100;" 
d="M791 1208q358 -278 651 -673q14 -22 14 -27q0 -6 -18 -25l-141 -127q-18 -14 -27 -14q-10 0 -25 20q-276 399 -641 699q-14 14 -14 18q0 8 14 19l136 112q17 15 22 15q6 0 29 -17z" />
    <glyph glyph-name="uni4E3F" unicode="&#xe0100;" 
d="M240 129q399 165 637 465q242 303 342 776q31 140 31 254v33q98 -8 245 -37q43 -11 43 -37q0 -12 -25 -51q-24 -41 -41 -131q-123 -576 -372 -911q-257 -343 -639 -531q-37 -18 -49 -18q-14 0 -41 47q-56 92 -131 141z" />
    <glyph glyph-name="uni4E59" unicode="&#xe0100;" 
d="M1278 1339h-641l-314 -4q-16 0 -19 4t-3 18v171q0 16 4 19t18 3l314 -4h797q40 0 59 6q26 10 37 10q30 0 102 -86q70 -81 70 -107q0 -24 -53 -45q-39 -11 -129 -71q-546 -400 -789 -652q-130 -134 -178 -200q-47 -67 -47 -111q0 -39 31 -70q30 -30 82 -40
q111 -25 471 -25q400 0 489 72q51 41 71 122q19 73 23 214q69 -40 158 -68q43 -12 52 -19q10 -8 10 -27q0 -9 -3 -34q-29 -285 -147 -370q-88 -62 -262 -85q-138 -18 -391 -20q-498 0 -666 66q-164 62 -164 231q0 113 72 230q62 100 200 241q283 291 746 631z" />
    <glyph glyph-name="uni4E85" unicode="&#xe0100;" 
d="M576 141q119 -14 260 -14q65 0 86 18q21 17 21 62v1165q0 165 -17 291q148 -4 240 -14q31 -3 31 -25q0 -15 -13 -43q-12 -30 -12 -205v-807l6 -407q0 -152 -80 -205q-85 -52 -323 -52q-35 0 -66 1q-43 0 -53 10q-9 8 -14 45q-14 93 -66 180z" />
    <glyph glyph-name="uni4E8C" unicode="&#xe0100;" 
d="M631 1221l-283 -4q-17 0 -21 4q-3 4 -3 18v189q0 16 4 19t20 3l283 -4h784l285 4q16 0 20 -4q3 -4 3 -18v-189q0 -16 -5 -19q-3 -3 -18 -3l-285 4h-784zM400 98l-258 -4q-17 0 -20 4t-3 18v189q0 16 4 19t19 3l258 -4h1251l256 4q16 0 19 -4t3 -18v-189q0 -15 -3.5 -18.5
t-18.5 -3.5l-256 4h-1251z" />
    <glyph glyph-name="uni4EA0" unicode="&#xe0100;" 
d="M410 637l-260 -4q-23 0 -23 20v179q0 16 4 19t19 3l260 -4h483v193q0 138 -14 233q114 -3 239 -16q35 -4 35 -29q0 -13 -15 -47q-12 -28 -12 -133v-201h514l258 4q18 0 21 -4q4 -4 4 -18v-179q0 -14 -4 -17t-21 -3l-258 4h-1230z" />
    <glyph glyph-name="uni4EBA" unicode="&#xe0100;" 
d="M1956 86q-70 -67 -115 -160q-23 -49 -37 -49q-10 0 -47 25q-570 367 -723 979q-164 -653 -741 -981q-38 -21 -47 -21q-15 0 -41 49q-45 74 -119 138q419 194 627 593q172 329 169 742q-4 173 -14 266q119 -6 252 -25q39 -5 39 -32q0 -19 -20 -51q-17 -28 -17 -136
q-2 -24 -2 -73q71 -482 295 -798q199 -280 541 -466z" />
    <glyph glyph-name="uni513F" unicode="&#xe0100;" 
d="M106 39q335 173 422 487q59 206 59 584v217q0 186 -16 303q143 -3 237 -14q39 -3 39 -29q0 -12 -17 -45q-12 -29 -12 -217v-197q0 -428 -67 -669q-88 -361 -420 -575q-35 -23 -47 -23q-14 0 -43 41q-54 83 -135 137zM1734 498q65 -42 162 -66q36 -10 43 -16q7 -8 7 -29
q0 -8 -1 -22q-6 -173 -32 -256q-21 -66 -66 -111q-51 -54 -126 -73q-71 -19 -206 -19q-150 0 -215 17q-51 13 -86 46q-35 34 -47 83q-12 46 -12 132v1162q0 173 -12 286q120 -3 233 -16q33 -4 33 -27q0 -6 -12 -43q-17 -43 -17 -209v-1077q0 -96 18 -117q20 -24 134 -24
q113 0 151 47q27 33 38 115q9 67 13 217z" />
    <glyph glyph-name="uni5165" unicode="&#xe0100;" 
d="M94 63q402 198 619 582q185 329 204 743h-254l-204 -4q-18 0 -22 4q-3 4 -3 18v173q0 16 5 19q4 3 20 3l204 -4h262l205 4q27 0 27 -24q-2 -28 -2 -53q0 -64 14 -175q97 -843 797 -1266q-77 -72 -121 -155q-24 -47 -37 -47q-10 0 -47 27q-549 404 -702 1015
q-89 -337 -306 -615q-189 -244 -448 -404q-42 -25 -47 -25q-12 0 -43 49q-48 80 -121 135z" />
    <glyph glyph-name="uni516B" unicode="&#xe0100;" 
d="M1215 1358h-342l-217 -4q-16 0 -20 5q-3 4 -3 19v173q0 16 5 19q3 3 18 3l217 -4h301l217 4q25 0 25 -24q0 -93 4 -140q37 -477 200 -814q128 -266 367 -509q-92 -44 -168 -127q-28 -31 -39 -31t-43 35q-465 551 -522 1395zM66 68q214 188 328 414q109 217 153 515
q16 94 19 215q127 -12 225 -36q33 -9 33 -27q0 -20 -12 -37q-13 -16 -29 -104q-61 -370 -185 -628q-109 -229 -288 -413q-35 -35 -47 -35q-15 0 -45 31q-81 74 -152 105z" />
    <glyph glyph-name="uni5182" unicode="&#xe0100;" 
d="M1327 111q109 -12 209 -12q80 0 80 69v1229h-1188v-1135l4 -370q0 -16 -5 -20q-4 -3 -19 -3h-185q-15 0 -18.5 3.5t-3.5 19.5l4 428v833l-4 432q0 16 4 20q4 3 19 3l272 -4h1052l273 4q16 0 19 -4t3 -19l-4 -438v-686l4 -354q-3 -111 -65 -168q-70 -55 -316 -55
q-50 0 -59 9q-8 9 -19 56q-22 100 -57 162z" />
    <glyph glyph-name="uni5196" unicode="&#xe0100;" 
d="M1573 1087l274 4q18 0 22 -4q3 -4 3 -18l-5 -125v-115l5 -244q0 -15 -4 -18.5t-21 -3.5h-190q-18 0 -22 4q-3 4 -3 18v291h-1216v-291q0 -16 -4 -19t-19 -3h-192q-17 0 -20 4t-3 18l5 244v98l-5 142q0 16 4 19t19 3l276 -4h1096z" />
    <glyph glyph-name="uni51AB" unicode="&#xe0100;" 
d="M1339 899q17 -88 60 -176q18 -37 18 -51q0 -17 -33 -56q-271 -335 -571 -616q-49 -49 -60 -66q-11 -20 -32 -20q-16 0 -35 29q-61 79 -117 188q97 55 154 107q314 267 616 661zM786 1608q239 -160 420 -347q10 -11 10 -17q0 -8 -18 -28l-109 -120q-18 -19 -26 -19t-17 12
q-182 201 -408 359q-14 8 -14 18t13 23l104 110q15 17 24 17q7 0 21 -8z" />
    <glyph glyph-name="uni51E0" unicode="&#xe0100;" 
d="M80 32q277 175 358 454q64 216 64 740l-4 355q0 22 20 22l254 -4h438l256 4q16 0 20 -4q3 -4 3 -18l-4 -347v-1007q0 -83 14 -102q19 -27 109 -27q94 0 121 41q30 46 36 280q52 -38 150 -69q37 -10 44 -16q9 -7 9 -24q0 -7 -2 -28q-15 -230 -71 -297q-48 -54 -115 -74
q-61 -18 -168 -18q-147 0 -210 14q-54 13 -85 43q-32 30 -43 76q-10 44 -10 127v1243h-539q0 -465 -16 -663q-15 -174 -56 -316q-92 -331 -348 -536q-36 -27 -45 -27q-16 0 -45 41q-64 91 -135 137z" />
    <glyph glyph-name="uni51F5" unicode="&#xe0100;" 
d="M1624 1601q141 -3 228 -14q27 -3 27 -22q0 -11 -8 -39q-12 -41 -12 -158v-895l4 -574q0 -16 -4 -19t-18 -3h-183q-16 0 -19 4t-3 18v111h-1219v-109q0 -16 -4 -19t-19 -3h-180q-16 0 -20 3.5t-4 18.5l4 558v905q0 151 -12 237q145 -3 228 -14q27 -3 27 -25q0 -11 -10 -38
q-10 -31 -10 -158v-1149h1219v1147q0 151 -12 237z" />
    <glyph glyph-name="uni5200" unicode="&#xe0100;" 
d="M1593 1333h-561q-7 -481 -121 -751q-162 -393 -594 -654q-39 -22 -49 -22q-15 0 -41 41q-51 72 -133 129q247 126 392 274q130 131 204 303q66 154 88 343q15 125 16 337h-299l-272 -4q-16 0 -20 4q-3 4 -3 18v171q0 17 5 21q3 3 18 3l272 -4h1033l276 4q25 0 25 -27
q-4 -118 -4 -182q0 -752 -68 -1116q-31 -173 -116 -239q-84 -64 -257 -64q-101 0 -186 8q-49 3 -59 15q-9 9 -19 57q-20 105 -57 168q177 -27 295 -27q148 0 180 166q55 304 55 1028z" />
    <glyph glyph-name="uni529B" unicode="&#xe0100;" 
d="M1562 1050h-518q-24 -293 -102 -494q-92 -237 -260 -408q-142 -145 -359 -262q-44 -18 -49 -18q-17 0 -49 43q-62 81 -129 119q496 216 637 608q67 186 86 412h-320l-274 -4q-18 0 -21 4q-4 4 -4 19v168q0 16 5 19q4 3 20 3l274 -4h330l2 178q0 155 -18 273
q160 -9 241 -23q41 -5 41 -29q0 -22 -18 -51q-16 -39 -16 -174q0 -115 -2 -174h430l280 4q25 0 25 -25q-4 -61 -4 -184q-7 -597 -64 -899q-29 -155 -119 -216q-77 -53 -223 -54q-18 -1 -39 -1q-70 0 -157 9q-50 4 -59 16q-8 10 -17 57q-22 102 -60 162q157 -26 308 -26
q123 0 149 137q53 301 53 815z" />
    <glyph glyph-name="uni52F9" unicode="&#xe0100;" 
d="M989 98q159 -23 314 -23q91 0 135 47q36 40 51 125q65 318 86 928h-967q-124 -226 -270 -387q-31 -37 -43 -37q-11 0 -45 37q-64 64 -131 104q268 265 420 654q33 88 49 176q138 -22 213 -43q39 -10 39 -27q0 -16 -22 -39q-17 -17 -46 -86q-36 -89 -63 -147h796l281 4
q25 0 25 -25q-2 -40 -4 -110q-2 -80 -2 -95q-26 -640 -94 -985q-60 -309 -373 -309q-137 0 -238 8q-43 3 -52 14q-7 9 -16 56q-15 92 -43 160z" />
    <glyph glyph-name="uni5315" unicode="&#xe0100;" 
d="M1627 469q64 -39 168 -82q34 -13 41 -19q9 -8 9 -23q0 -7 -3 -32q-31 -252 -143 -327q-126 -88 -641 -88q-279 0 -403 16q-107 15 -168 49q-72 41 -98 115q-23 65 -23 186v1120q0 179 -12 258q133 -3 233 -14q37 -3 37 -26q0 -16 -15 -41q-14 -29 -14 -158v-514
q529 162 836 375q67 46 108 90q54 -43 158 -148q22 -22 22 -43t-37 -28q-29 -6 -106 -58q-411 -244 -981 -411v-340q0 -86 16 -125t56 -59q65 -33 391 -33q415 0 493 72q63 60 76 288z" />
    <glyph glyph-name="uni531A" unicode="&#xe0100;" 
d="M452 1384v-1208h1108l283 4q17 0 21 -4q3 -4 3 -18v-168q0 -17 -3.5 -21t-20.5 -4l-283 4h-1108v-100q0 -17 -4 -20q-5 -3 -21 -3h-180q-15 0 -18.5 3.5t-3.5 19.5l4 411v881l-4 410q0 17 4 21q4 3 19 3l280 -4h1016l274 4q16 0 20 -5q3 -4 3 -19v-166q0 -18 -5 -22
q-3 -3 -18 -3l-274 4h-1092z" />
    <glyph glyph-name="uni5338" unicode="&#xe0100;" 
d="M150 1352q-17 0 -20 4t-3 18v175q0 16 4 19t19 3l257 -4h1237l256 4q18 0 22 -4q3 -4 3 -18v-175q0 -16 -5 -19q-4 -3 -20 -3l-256 4h-1083v-1016q0 -81 18 -116q19 -35 66 -47q99 -29 475 -29q351 0 688 35q9 1 14 1q18 0 21 -24q3 -16 4 -90q1 -33 1 -49q0 -42 -8 -52
q-5 -7 -28 -9q-296 -29 -684 -29q-537 0 -663 57q-131 55 -131 283v1085q-78 -1 -141 -3q-42 -1 -43 -1z" />
    <glyph glyph-name="uni5341" unicode="&#xe0100;" 
d="M881 1704q130 -4 243 -17q33 -3 33 -24q0 -16 -12 -43q-15 -35 -15 -217v-414h520l256 4q16 0 20 -4q3 -4 3 -18v-179q0 -15 -3.5 -18.5t-19.5 -3.5l-256 4h-520v-551l4 -357q0 -20 -22 -20h-195q-17 0 -21 4q-3 3 -3 16l4 355v553h-500l-258 -4q-16 0 -19 4t-3 18v179
q0 16 4 19t18 3l258 -4h500v406q0 192 -16 309z" />
    <glyph glyph-name="uni535C" unicode="&#xe0100;" 
d="M698 1710q151 -4 235 -14q33 -4 33 -21q0 -10 -13 -43q-12 -29 -12 -227v-297q471 -208 800 -432q14 -7 14 -15q0 -7 -9 -26l-92 -170q-15 -27 -22 -27q-5 0 -17 9q-338 243 -674 399v-629l4 -360q0 -23 -20 -23h-195q-20 0 -20 23l4 358v1186q0 193 -16 309z" />
    <glyph glyph-name="uni5369" unicode="&#xe0100;" 
d="M979 387q114 -12 222 -12q46 0 62 21q16 19 16 67v938h-513v-1174l4 -368q0 -16 -5 -20q-4 -3 -19 -3h-189q-15 0 -18.5 3.5t-3.5 19.5l4 424v880l-4 428q0 17 4 20t19 3l253 -4h421l254 4q16 0 19 -4t3 -19l-4 -337v-519l6 -315q0 -136 -53 -192q-45 -47 -125 -62
q-74 -13 -228 -12q-51 0 -60 10q-7 9 -13 55q-17 102 -52 168z" />
    <glyph glyph-name="uni5382" unicode="&#xe0100;" 
d="M505 1403v-252q0 -451 -53 -743q-52 -262 -164 -492q-18 -39 -31 -39t-41 31q-75 82 -155 119q120 187 174 459q47 247 47 669l-4 428q0 16 4 20q5 3 21 3l276 -4h1030l274 4q21 0 21 -23v-162q0 -22 -21 -22l-274 4h-1104z" />
    <glyph glyph-name="uni53B6" unicode="&#xe0100;" 
d="M1212 774q-9 11 -9 17q0 7 24 20l137 63q14 7 21 7q9 0 20 -14q294 -421 481 -842q5 -13 5 -18q0 -11 -23 -21l-158 -72q-19 -8 -26 -8q-8 0 -15 16q-68 159 -102 230q-592 -100 -1223 -154q-67 -5 -98 -23q-23 -14 -45 -14t-29 31q-22 86 -41 233q55 -3 112 -3
q60 0 105 3l51 2q265 607 406 1120q40 151 57 271q153 -36 225 -60q39 -12 39 -39q0 -17 -20 -45q-24 -29 -48 -108q-173 -573 -409 -1120q479 42 823 96q-121 231 -260 432z" />
    <glyph glyph-name="uni53C8" unicode="&#xe0100;" 
d="M1970 88q-65 -81 -100 -167q-20 -51 -39 -51q-10 0 -49 14q-452 174 -739 435q-306 -270 -779 -439q-30 -12 -47 -12q-18 0 -41 51q-38 89 -100 154q497 143 809 410q-276 328 -434 862q-101 -1 -178 -3q-51 -1 -52 -1q-16 0 -19 5q-3 4 -3 19v163q0 16 4 19t18 3l279 -4
h999q33 0 58 13q21 8 26 8q31 0 103 -70q59 -59 59 -82q0 -25 -20 -43q-31 -24 -62 -104q-179 -475 -459 -787q277 -232 766 -393zM1442 1345h-766q142 -442 369 -705q251 291 397 705z" />
    <glyph glyph-name="uni53E3" unicode="&#xe0100;" 
d="M460 -78h-184q-16 0 -19 4t-3 18l4 674v379l-4 504q0 18 4 22q4 3 19 3l282 -4h930l281 4q17 0 21 -5q3 -4 3 -20l-4 -450v-433l4 -668q0 -16 -5 -19q-4 -3 -19 -3h-185q-16 0 -19 4t-3 18v154h-1078v-160q0 -16 -5 -19q-4 -3 -20 -3zM485 1313v-1000h1078v1000h-1078z
" />
    <glyph glyph-name="uni56D7" unicode="&#xe0100;" 
d="M385 -150h-177q-15 0 -18.5 3.5t-3.5 19.5l4 780v383l-4 559q0 16 4 20q4 3 19 3l272 -4h1085l272 4q17 0 20 -4t3 -19l-4 -491v-449l4 -780q0 -16 -4 -20q-4 -3 -18 -3h-177q-16 0 -19 5q-3 3 -3 18v92h-1233v-94q0 -16 -4 -20q-4 -3 -18 -3zM407 1421v-1259h1233v1259
h-1233z" />
    <glyph glyph-name="uni571F" unicode="&#xe0100;" 
d="M387 -59l-256 -4q-20 0 -20 22v171q0 22 20 22l256 -4h506v698h-326l-280 -4q-16 0 -20 4q-3 4 -3 18v171q0 16 5 19q3 3 18 3l280 -4h326v317q0 217 -16 322q149 -4 239 -14q33 -4 33 -25q0 -16 -12 -45q-13 -30 -13 -234v-321h360l279 4q18 0 21 -4t3 -18v-171
q0 -16 -4 -19t-20 -3l-279 4h-360v-698h539l256 4q20 0 20 -22v-171q0 -22 -20 -22l-256 4h-1276z" />
    <glyph glyph-name="uni58EB" unicode="&#xe0100;" 
d="M536 -47l-276 -4q-16 0 -20 4q-3 4 -3 18v171q0 16 5 19q3 3 18 3l276 -4h365v688h-492l-260 -4q-16 0 -19 4t-3 18v169q0 17 4 21q4 3 18 3l260 -4h492v375q0 170 -16 250q145 -4 233 -15q31 -3 31 -22q0 -18 -10 -41q-13 -32 -13 -160v-387h518l260 4q16 0 20 -5
q3 -4 3 -19v-169q0 -16 -4 -19t-19 -3l-260 4h-518v-688h387l277 4q16 0 19 -4t3 -18v-171q0 -15 -3.5 -18.5t-18.5 -3.5l-277 4h-977z" />
    <glyph glyph-name="uni5902" unicode="&#xe0100;" 
d="M1970 92q-61 -64 -113 -164q-25 -51 -43 -51q-7 0 -47 14q-442 174 -727 441q-285 -251 -735 -451q-40 -14 -47 -14q-18 0 -47 47q-37 64 -113 133q486 179 791 446q-152 181 -273 445q-112 -132 -250 -248q-32 -29 -43 -29q-13 0 -43 39q-47 59 -127 113
q387 278 561 684q50 111 64 201q111 -16 213 -45q33 -9 33 -33q0 -17 -25 -39q-22 -22 -51 -92l-55 -125h501q33 0 45 6q22 12 45 12q25 0 86 -59q70 -60 70 -85q0 -23 -23 -43q-20 -15 -40 -67q-143 -371 -377 -637q300 -258 770 -399zM753 1120q113 -270 291 -473
q210 240 301 518h-563q-8 -16 -29 -45z" />
    <glyph glyph-name="uni590A" unicode="&#xe0100;" 
d="M1972 84q-45 -42 -109 -166q-25 -51 -45 -51q-8 0 -47 14q-414 165 -731 438q-281 -246 -727 -444q-40 -14 -47 -14q-18 0 -47 47q-47 73 -113 133q469 171 772 430q-148 154 -276 342q-107 -107 -220 -190q-32 -27 -47 -27q-12 0 -45 41q-63 78 -125 117
q176 109 318 247q-77 132 -158 308q-4 12 -4 18q0 14 23 29l118 80q17 10 25 10q11 0 22 -27q54 -128 121 -250q108 137 197 322q54 113 72 205q98 -16 221 -51q33 -10 33 -33q0 -18 -27 -37q-23 -16 -57 -90q-41 -86 -64 -127h397q33 0 45 6q22 12 45 12q25 0 86 -59
q70 -60 70 -85q0 -23 -23 -43q-20 -15 -40 -67q-148 -385 -387 -647q322 -255 774 -391zM1353 1159h-465q-54 -80 -139 -186q122 -191 285 -351q218 240 319 537z" />
    <glyph glyph-name="uni5915" unicode="&#xe0100;" 
d="M174 827q442 293 657 717q41 83 54 152q146 -22 221 -43q33 -9 33 -33q0 -17 -23 -35q-20 -16 -49 -75l-55 -107h559q38 0 53 6q33 12 43 12q22 0 88 -64q64 -60 64 -82q0 -19 -21 -37q-22 -19 -53 -96q-167 -432 -412 -708q-298 -335 -829 -574q-40 -14 -45 -14
q-17 0 -47 47q-48 74 -129 137q490 174 796 467q-175 167 -346 283q-14 9 -14 16q0 11 14 25l109 111q14 16 21 16q6 0 18 -8q185 -121 350 -275q183 239 297 539h-639q-198 -287 -506 -518q-34 -25 -47 -25t-41 41q-46 69 -121 125z" />
    <glyph glyph-name="uni5927" unicode="&#xe0100;" 
d="M410 967l-260 -4q-17 0 -20 5q-3 4 -3 20v168q0 16 4 19t19 3l260 -4h469q6 85 10 277v48q0 103 -10 189q162 -5 235 -16q37 -8 37 -29q0 -18 -12 -43q-16 -28 -19 -143q-4 -193 -12 -283h528l261 4q16 0 19 -4t3 -18v-168q0 -18 -4 -22q-4 -3 -18 -3l-261 4h-489
q105 -332 329 -568q207 -217 490 -325q-71 -68 -119 -154q-27 -51 -43 -51q-9 0 -47 21q-515 275 -729 827q-29 -99 -78 -197q-203 -417 -655 -639q-39 -16 -49 -16q-17 0 -47 47q-44 66 -117 129q469 181 664 564q77 155 110 362h-446z" />
    <glyph glyph-name="uni5973" unicode="&#xe0100;" 
d="M140 72q530 45 823 286q-163 85 -358 164q-42 -66 -68 -104q-12 -17 -20 -17q-6 0 -23 8l-148 66q-24 9 -24 20q0 7 8 19q68 90 117 178q87 162 166 340h-221l-256 -4q-17 0 -20 4t-3 18v161q0 17 4 21q4 3 19 3l256 -4h303q45 116 88 260q30 104 43 201q122 -13 221 -39
q35 -8 35 -35q0 -15 -23 -41q-18 -23 -43 -94q-31 -100 -84 -252h719l256 4q18 0 21 -5q4 -4 4 -19v-161q0 -16 -5 -19q-4 -3 -20 -3l-256 4h-78q-83 -377 -260 -623q232 -128 530 -331q13 -9 13 -15t-14 -24l-109 -129q-16 -22 -25 -22q-7 0 -18 9q-264 197 -522 347
q-304 -289 -848 -371q-21 -2 -45 -2q-23 0 -45 55q-37 88 -90 146zM699 696q193 -71 415 -182q159 207 230 518h-490q-73 -178 -155 -336z" />
    <glyph glyph-name="uni5B50" unicode="&#xe0100;" 
d="M400 688l-258 -4q-17 0 -20 4t-3 18v168q0 17 4 20t19 3l258 -4h526q-4 162 -16 256q13 -2 40 -4q55 -4 82 -8q190 124 346 280h-743l-283 -4q-16 0 -19 4t-3 18v162q0 17 4 20t18 3l283 -4h868q11 0 35 8q19 6 27 6q22 0 90 -66q76 -75 76 -106q0 -26 -35 -45
q-41 -23 -88 -72q-204 -207 -457 -360v-88h510l258 4q16 0 19 -4t3 -19v-168q0 -15 -3.5 -18.5t-18.5 -3.5l-258 4h-510v-233l4 -324q0 -150 -86 -215q-46 -34 -136 -45q-72 -8 -234 -8q-51 0 -60 9q-8 8 -18 54q-27 91 -76 172q141 -14 285 -14q96 0 96 100v504h-526z" />
    <glyph glyph-name="uni5B80" unicode="&#xe0100;" 
d="M1584 1006l274 4q18 0 22 -4q3 -3 3 -16l-5 -125v-115l5 -231q0 -16 -4 -19.5t-21 -3.5h-190q-18 0 -22 4q-3 4 -3 19v278h-1237v-278q0 -17 -4 -20t-19 -3h-192q-17 0 -20 4t-3 19l5 231v96l-5 143q0 21 23 21l276 -4h420v129q0 107 -16 178q113 0 249 -10q31 -3 31 -25
q0 -10 -12 -39q-10 -23 -10 -104v-129h455z" />
    <glyph glyph-name="uni5BF8" unicode="&#xe0100;" 
d="M402 1047l-258 -4q-17 0 -20 5q-3 4 -3 19v175q0 16 4 19t19 3l258 -4h860v160q0 165 -17 291q122 -4 240 -17q35 -3 35 -22q0 -14 -15 -47q-16 -33 -16 -201v-164h160l258 4q16 0 19 -4t3 -18v-175q0 -17 -4 -21q-4 -3 -18 -3l-258 4h-160v-479l6 -449q0 -91 -16 -132
q-15 -40 -54 -69q-60 -44 -386 -47h-22q-33 0 -42 13q-7 10 -16 51q-24 112 -62 170q125 -11 236 -11h45q50 2 67 18q17 14 17 48v887h-860zM661 889q216 -216 345 -418q5 -9 5 -16q0 -11 -24 -29l-137 -96q-22 -15 -29 -15q-10 0 -23 18q-139 241 -323 425q-10 10 -10 17
q0 9 22 26l127 88q14 10 24 10t23 -10z" />
    <glyph glyph-name="uni5C0F" unicode="&#xe0100;" 
d="M603 143q99 -12 217 -12q54 0 72 18q18 17 18 62v1157q0 183 -16 293q127 -4 237 -16q35 -4 35 -23q0 -12 -15 -45q-14 -29 -14 -205v-805l8 -407q0 -155 -74 -207q-44 -29 -121 -40q-70 -10 -210 -11q-50 0 -59 9q-8 8 -17 54q-26 124 -61 178zM76 399q224 258 336 639
q27 98 33 179q85 -21 212 -72q35 -16 35 -33q0 -20 -16 -33q-26 -30 -39 -82q-117 -397 -323 -679q-27 -39 -39 -39q-10 0 -45 29q-65 55 -154 91zM1966 424q-81 -43 -153 -108q-34 -31 -45 -31q-13 0 -37 39q-115 180 -215 405q-92 209 -142 393q-2 10 -2 15q0 12 31 22
l143 53q19 7 24 7q8 0 13 -19q122 -435 383 -776z" />
    <glyph glyph-name="uni5C38" unicode="&#xe0100;" 
d="M454 425q-50 -299 -180 -524q-21 -39 -35 -39q-12 0 -39 33q-66 75 -139 120q138 197 180 478q43 255 43 674l-4 428q0 16 4 20q4 3 19 3l282 -4h930l284 4q17 0 20 -4t3 -19l-4 -201v-350l4 -195q0 -16 -4 -20q-4 -3 -19 -3h-179q-18 0 -22 5q-3 3 -3 18v86h-1092
q-7 -280 -49 -510zM1595 1421h-1092v-293h1092v293z" />
    <glyph glyph-name="uni5C6E" unicode="&#xe0101;" 
d="M348 2q258 91 380 209q111 107 144 266l8 51h-426v-119q0 -16 -4 -19t-19 -3h-174q-16 0 -19 4t-3 18l4 269v483q0 154 -16 260q104 -3 223 -16q35 -4 35 -23q0 -5 -13 -41q-14 -37 -14 -180v-432h445q0 11 6 201q3 173 3 362q0 111 -1 217q-6 125 -15 189
q129 -7 234 -25q39 -5 39 -27q0 -18 -16 -51q-19 -36 -19 -243q0 -439 -8 -623h473v438q0 171 -16 262q105 -2 225 -16q31 -3 31 -23q0 -10 -11 -41q-14 -37 -14 -200v-465l4 -273q0 -15 -3.5 -18.5t-19.5 -3.5h-171q-18 0 -22 4q-3 4 -3 18v117h-490l-10 -74
q-39 -229 -179 -375q-114 -119 -341 -231q-36 -16 -47 -16q-19 0 -49 45q-62 82 -131 125z" />
    <glyph glyph-name="uni5C71" unicode="&#xe0100;" 
d="M1573 1172q115 -3 229 -17q33 -6 33 -22q0 -10 -13 -43q-12 -27 -12 -205v-627l4 -352q0 -16 -4 -20q-4 -3 -18 -3h-183q-16 0 -19 5q-3 3 -3 18v129h-1127v-141q0 -16 -4 -20q-4 -3 -19 -3h-180q-16 0 -20 3.5t-4 19.5l4 354v651q0 168 -12 265q141 -4 229 -17
q33 -3 33 -22q0 -9 -5 -22q-6 -16 -7 -19q-15 -35 -15 -185v-659h435v1126q0 175 -16 312q144 -4 235 -15q31 -3 31 -22q0 -10 -13 -43q-10 -31 -10 -227v-1131h465v666q0 154 -14 266z" />
    <glyph glyph-name="uni5DDB" unicode="&#xe0100;" 
d="M543 1659q125 -26 223 -57q39 -12 39 -35q0 -11 -27 -45q-24 -28 -43 -68q-149 -376 -324 -666q259 -385 414 -819q3 -8 3 -13q0 -13 -25 -19l-179 -46q-12 -3 -20 -3q-14 0 -20 22q-153 463 -386 838q-20 32 -20 43q0 10 18 40q200 335 314 668q25 75 33 160zM1577 1659
q99 -19 221 -55q39 -14 39 -37q0 -17 -27 -43q-25 -30 -41 -68q-138 -363 -317 -659q276 -406 444 -809q4 -10 4 -15q0 -12 -28 -20l-170 -47q-13 -4 -20 -4q-12 0 -23 24q-168 443 -423 830q-18 30 -18 43q0 7 16 43q200 350 306 659q27 83 37 158zM1059 1661
q120 -25 221 -57q41 -14 41 -35q0 -15 -27 -45q-26 -27 -43 -68q-142 -356 -313 -659q272 -412 415 -811q3 -9 3 -15q0 -14 -23 -20l-182 -43q-12 -3 -17 -3q-12 0 -18 21q-144 435 -391 830q-21 32 -21 45q0 8 16 41q214 381 302 659q27 83 37 160z" />
    <glyph glyph-name="uni5DE5" unicode="&#xe0100;" 
d="M401 27l-258 -4q-16 0 -19 4t-3 18v172q0 17 4 20t18 3l258 -4h494v1060h-360l-277 -4q-16 0 -19 4t-3 18v173q0 16 4 19t18 3l277 -4h982l275 4q16 0 19 -4t3 -18v-173q0 -16 -4 -19t-18 -3l-275 4h-391v-1060h522l258 4q16 0 20 -4q3 -4 3 -19v-172q0 -15 -3.5 -18.5
t-19.5 -3.5l-258 4h-1247z" />
    <glyph glyph-name="uni5DF1" unicode="&#xe0100;" 
d="M1467 1384h-878l-311 -4q-16 0 -19 4t-3 18v171q0 16 4 19t18 3l311 -4h802l280 4q17 0 20 -4t3 -18l-4 -220v-472l4 -219q0 -21 -22 -21h-183q-22 0 -22 21v104h-927v-465q0 -110 39 -139q55 -41 505 -41q484 0 565 61q41 30 56 99q11 53 16 172q66 -43 158 -70
q39 -11 49 -20q10 -8 10 -28q0 -10 -4 -40q-16 -138 -44 -200q-32 -70 -99 -107q-138 -78 -707 -78q-332 0 -488 20q-139 18 -195 58q-50 35 -68 102q-16 56 -16 160v493l-4 212q0 16 4 19t18 3l301 -4h831v411z" />
    <glyph glyph-name="uni5DFE" unicode="&#xe0100;" 
d="M1334 393q65 -6 186 -6q74 0 74 74v645h-471v-885l4 -356q0 -16 -5 -20q-4 -3 -19 -3h-185q-16 0 -19 5q-3 3 -3 18l4 356v885h-435v-641l4 -270q0 -16 -4 -20q-4 -3 -18 -3h-187q-16 0 -19 4t-3 19l4 278v570l-4 249q0 18 4 22q4 3 19 3l278 -4h361v84q0 213 -16 315
q139 -3 231 -14q31 -3 31 -22q0 -5 -10 -41q-13 -41 -13 -232v-90h397l278 4q17 0 20 -5q3 -4 3 -20l-4 -268v-426l4 -203q0 -107 -57 -153q-62 -60 -299 -62q-52 0 -62 10q-9 9 -18 54q-16 88 -51 149z" />
    <glyph glyph-name="uni5E72" unicode="&#xe0100;" 
d="M535 1388l-277 -4q-16 0 -19 4t-3 18v169q0 16 4 19t18 3l277 -4h972l276 4q18 0 22 -4q3 -4 3 -18v-169q0 -16 -5 -19q-4 -3 -20 -3l-276 4h-385v-446h516l274 4q17 0 20 -5q3 -4 3 -20v-172q0 -15 -3.5 -18.5t-19.5 -3.5l-274 4h-516v-576l4 -289q0 -16 -4 -19t-18 -3
h-193q-16 0 -19 4t-3 18l4 289v576h-479l-277 -4q-16 0 -19 4t-3 18v172q0 18 4 22q4 3 18 3l277 -4h479v446h-358z" />
    <glyph glyph-name="uni5E7F" unicode="&#xe0100;" 
d="M508 1261v-233q0 -396 -39 -642q-44 -248 -172 -489q-22 -37 -35 -37q-12 0 -43 31q-70 77 -141 119q136 191 180 465q33 199 33 593l-4 377q0 17 4 20t18 3l279 -4h381v86q0 94 -15 166q89 0 228 -12q33 -4 33 -21q0 -10 -13 -39q-14 -28 -14 -88v-92h418l274 4
q16 0 20 -4q3 -4 3 -19v-166q0 -16 -5 -19q-3 -3 -18 -3l-274 4h-1098z" />
    <glyph glyph-name="uni5EF4" unicode="&#xe0100;" 
d="M1220 121q438 0 760 39q-29 -41 -57 -162q-10 -51 -21 -60q-10 -7 -57 -10q-227 -16 -651 -16q-470 0 -686 207q-100 -113 -221 -211q-35 -29 -45 -29q-11 0 -41 43q-49 78 -109 129q162 103 276 230q-98 138 -180 344q-7 14 -7 20q0 10 22 19l120 43q14 5 22 5
q16 0 26 -26q56 -144 118 -242q104 179 133 410h-213q-7 -11 -20 -28q-16 -20 -18 -23q-14 -17 -23 -17q-16 0 -100 49q-78 45 -78 58q0 8 14 22q231 275 350 506h-157l-197 -4q-16 0 -19 5q-3 4 -3 20v153q0 17 4 20t18 3l197 -4h254q28 0 45 4q3 1 8 2q12 4 16 4
q24 0 68 -58q53 -65 53 -90q0 -16 -23 -33q-17 -11 -55 -77q-97 -172 -200 -326h131q29 0 47 7q17 4 24 4q26 0 72 -55q57 -70 57 -88q0 -9 -22 -39q-20 -28 -31 -82q-61 -296 -192 -506q110 -97 263 -132q124 -28 328 -28z" />
    <glyph glyph-name="uni5EFE" unicode="&#xe0100;" 
d="M384 764l-256 -4q-17 0 -20 4t-3 18v175q0 16 4 19t19 3l256 -4h213q2 78 2 233v172q0 191 -17 304q125 -4 226 -13q45 -3 45 -26q0 -2 -15 -49q-12 -32 -12 -216v-159q0 -164 -2 -246h428v397q0 176 -17 310q127 -4 220 -13q47 -5 47 -22q0 -12 -13 -41
q-14 -32 -14 -228v-403h178l256 4q16 0 20 -4q3 -4 3 -18v-175q0 -15 -4 -18.5t-19 -3.5l-256 4h-178v-541l4 -348q0 -16 -5 -19q-4 -3 -20 -3h-184q-16 0 -19 4t-3 18l4 346v543h-438q-14 -193 -41 -299q-52 -208 -156 -349q-94 -128 -260 -244q-35 -23 -45 -23
q-16 0 -47 43q-65 85 -133 127q196 106 298 234q89 112 124 261q25 106 34 250h-204z" />
    <glyph glyph-name="uni5F0B" unicode="&#xe0100;" 
d="M1626 995l-463 -37q48 -274 149 -487q79 -170 193 -273q85 -77 141 -77q50 0 76 68q21 58 39 200q60 -48 143 -88q37 -15 46 -21q10 -9 10 -24q0 -10 -6 -43q-62 -338 -273 -338q-169 0 -338 159q-148 139 -237 349q-118 260 -168 559l-512 -39q-89 -7 -258 -22
q-7 -1 -10 -1q-13 0 -15 19l-12 178q-1 6 -1 9q0 10 19 12q6 0 38 2q100 4 224 14l498 37q-13 115 -19 244q-8 201 -28 301q112 0 235 -10q35 -4 35 -25q0 -15 -10 -41q-10 -25 -10 -78q0 -38 3 -100q4 -145 19 -275l484 37q115 9 198 19q20 2 46 5q14 2 18 3h7q13 0 15 -23
l10 -170q1 -4 1 -8q0 -14 -23 -16q-6 -1 -38 -3q-105 -6 -226 -16zM1441 1612q146 -86 261 -201q12 -12 12 -18q0 -11 -15 -25l-100 -102q-16 -17 -24 -17q-9 0 -21 12q-114 123 -244 213q-12 10 -12 17q0 8 14 22l86 90q14 16 24 16q6 0 19 -7z" />
    <glyph glyph-name="uni5F13" unicode="&#xe0100;" 
d="M1473 1415h-889l-283 -4q-14 0 -17 4q-3 5 -3 21v159q0 18 4 22q3 3 16 3l283 -4h772l318 4q16 0 19 -5q3 -4 3 -20l-4 -186v-238l4 -186q0 -17 -4 -20t-18 -3l-318 4h-768q-29 -147 -57 -253h977l282 4q25 0 25 -18v-7q-2 -9 -14 -137q-9 -85 -17 -151
q-36 -287 -98 -406q-77 -145 -309 -145q-121 0 -215 10q-45 5 -56 18q-9 12 -18 60q-22 101 -57 161q173 -30 333 -30q62 0 89 13q30 15 45 55q47 131 67 372h-1087q-25 -81 -45 -137q-7 -18 -28 -18q-16 0 -96 10q-111 14 -111 33q0 4 3 12q101 265 162 579q17 85 20 155
q0 25 25 25l270 -4h795v248z" />
    <glyph glyph-name="uni5F50" unicode="&#xe0100;" 
d="M1594 146h65l260 4q16 0 20 -4q3 -4 3 -18v-173q0 -15 -3.5 -18.5t-19.5 -3.5l-260 4h-1261l-260 -4q-17 0 -20 4t-3 18v173q0 16 4 19t19 3l260 -4h968l29 540h-764l-276 -4q-17 0 -20 4t-3 19v168q0 16 4 19t19 3l276 -4h776l27 481h-834l-286 -4q-17 0 -20 4t-3 18
v171q0 16 4 19t19 3l286 -4h764l285 4q20 0 25 -6q4 -5 4 -23q-8 -71 -17 -221z" />
    <glyph glyph-name="uni5F61" unicode="&#xe0100;" 
d="M1389 1704q101 -65 167 -127q23 -20 23 -39q0 -17 -23 -25q-48 -14 -86 -40q-204 -137 -493 -251q-246 -97 -497 -155q-31 -7 -41 -7q-17 0 -37 42q-57 109 -97 151q635 127 979 359q58 38 105 92zM244 98q849 149 1276 469q102 77 143 125q103 -73 171 -143
q20 -21 20 -39q0 -20 -27 -27q-46 -9 -100 -55q-502 -376 -1307 -537q-28 -5 -37 -5q-18 0 -35 42q-46 115 -104 170zM1485 1204q69 -44 170 -131q19 -18 19 -33q0 -17 -25 -26q-34 -10 -86 -45q-418 -297 -1045 -457q-30 -8 -40 -8q-17 0 -37 43q-48 105 -99 155
q638 131 1026 400q72 52 117 102z" />
    <glyph glyph-name="uni5F73" unicode="&#xe0100;" 
d="M412 633q217 85 445 239q206 138 309 261q46 50 75 102q100 -52 178 -102q31 -21 31 -37q0 -15 -25 -29q-28 -16 -53 -43q-96 -108 -229 -219v-690l4 -254q0 -21 -22 -21h-183q-22 0 -22 21l4 254v293q0 84 4 239q-162 -107 -303 -176q-36 -16 -47 -16q-18 0 -47 47
q-54 78 -119 131zM1200 1708q99 -49 176 -102q35 -20 35 -39q0 -18 -39 -35q-25 -11 -80 -57q-253 -244 -620 -396q-36 -16 -45 -16q-15 0 -45 45q-63 92 -127 137q208 65 406 180q160 93 249 183q52 47 90 100z" />
    <glyph glyph-name="uni5FC3" unicode="&#xe0100;" 
d="M1341 483q64 -37 170 -65q37 -10 44 -17q8 -7 8 -29q0 -8 -1 -22q-6 -180 -35 -264q-24 -70 -75 -111q-62 -50 -159 -69q-83 -17 -222 -17q-266 0 -340 49q-84 53 -84 203v786q0 153 -12 234q100 -3 217 -21q45 -5 45 -30q0 -16 -12 -37q-15 -26 -15 -146v-710
q0 -70 39 -89q41 -20 178 -20q152 0 195 43q37 32 48 102q11 67 11 230zM1693 1006q178 -294 277 -627q3 -11 3 -16q0 -11 -26 -25l-155 -76q-20 -10 -27 -10q-9 0 -14 18q-86 345 -265 645q-5 10 -5 16q0 11 26 21l146 62q19 7 24 7q9 0 16 -15zM811 1688
q310 -108 557 -267q16 -9 16 -17q0 -7 -10 -24l-86 -147q-15 -26 -23 -26q-5 0 -16 7q-274 191 -559 291q-16 6 -16 13q0 4 10 24l86 127q15 22 26 22q5 0 15 -3zM332 963l145 -37q31 -9 31 -25v-8q-48 -356 -189 -696q-8 -19 -20 -19q-8 0 -23 6l-149 68q-27 13 -27 25
q0 5 4 14q139 292 191 657q3 21 12 21q5 0 25 -6z" />
    <glyph glyph-name="uni6208" unicode="&#xe0100;" 
d="M185 102q466 99 825 334q-113 253 -170 592l-407 -29q-172 -12 -259 -20q-6 -1 -9 -1q-13 0 -15 21l-10 177q-1 6 -1 9q0 11 21 11q54 0 262 14l391 27q-12 123 -16 184q-16 210 -29 285q173 -5 236 -10q35 -4 35 -25q0 -11 -6 -26q-8 -18 -9 -21q-8 -24 -8 -73
q0 -46 6 -121q8 -115 15 -179l581 41q111 8 200 18q60 7 62 7q16 0 19 -4q2 -3 4 -19l10 -166q1 -6 1 -10q0 -14 -23 -16l-262 -17l-562 -41q47 -272 129 -469q142 124 232 259q63 89 94 167q128 -71 186 -116q25 -20 25 -37q0 -18 -35 -37q-19 -11 -69 -80
q-143 -197 -330 -358q82 -134 170 -204q71 -56 129 -56q107 0 160 321q47 -44 137 -84q56 -25 56 -48q0 -11 -9 -46q-54 -213 -135 -307q-75 -87 -183 -84q-144 2 -291 122q-116 95 -214 249q-323 -218 -740 -339q-34 -10 -45 -10q-20 0 -45 53q-51 106 -104 162zM1352 1671
q159 -109 266 -213q10 -10 10 -16q0 -8 -16 -23l-102 -96q-19 -18 -27 -18q-6 0 -20 14q-135 141 -259 221q-14 11 -14 16q0 8 19 23l102 88q16 13 23 13q5 0 18 -9z" />
    <glyph glyph-name="uni6238" unicode="&#xe0100;" 
d="M554 384q-59 -275 -224 -501q-26 -35 -37 -35t-40 33q-60 67 -150 112q196 212 244 508q29 181 29 373l-4 330q0 17 4 20t18 3l284 -4h756l284 4q21 0 21 -23l-4 -203v-362l4 -197q0 -23 -21 -23h-184q-20 0 -20 23v90h-934q-16 -98 -26 -148zM1514 1022h-917v-289h917
v289zM440 1401l-262 -4q-16 0 -20 4q-3 4 -3 18v164q0 16 5 20q3 3 18 3l262 -4h1204l262 4q17 0 20 -4t3 -19v-164q0 -16 -4 -19t-19 -3l-262 4h-1204z" />
    <glyph glyph-name="uni624B" unicode="&#xe0100;" 
d="M398 458l-258 -4q-17 0 -20 4t-3 19v163q0 17 4 20t19 3l258 -4h520v246h-340l-281 -4q-16 0 -19 5q-3 4 -3 20v164q0 20 22 20l281 -4h340v243q-222 -26 -525 -46q-20 -1 -25 -1q-31 0 -40 12q-7 9 -18 48q-24 78 -62 139q391 12 686 53q260 36 446 84q83 21 183 64
q88 -79 145 -152q19 -21 19 -39q0 -20 -35 -20q-50 -4 -96 -17q-212 -57 -457 -94v-274h348l279 4q22 0 22 -20v-164q0 -18 -4 -22q-4 -3 -18 -3l-279 4h-348v-246h510l258 4q16 0 19 -4t3 -19v-163q0 -16 -3.5 -19.5t-18.5 -3.5l-258 4h-510v-68l6 -278q0 -75 -16 -114
q-14 -36 -50 -66q-65 -51 -350 -51q-18 -1 -24 -1q-30 0 -39 13q-7 11 -14 51q-21 105 -56 162q94 -13 236 -13q53 0 71 21q15 17 15 55v289h-520z" />
    <glyph glyph-name="uni652F" unicode="&#xe0100;" 
d="M404 1212l-260 -4q-16 0 -19 4t-3 18v163q0 17 4 21q4 3 18 3l260 -4h492v33q0 154 -17 262q143 -4 234 -14q33 -4 33 -23q0 -9 -15 -43q-12 -41 -12 -162v-53h522l260 4q16 0 20 -5q3 -4 3 -19v-163q0 -16 -5 -19q-3 -3 -18 -3l-260 4h-522v-254h299q39 0 59 8
q17 8 27 8q18 0 81 -64q64 -60 64 -88q0 -14 -29 -37q-30 -23 -49 -55q-165 -260 -374 -436q281 -158 761 -231q-48 -65 -88 -165q-18 -53 -43 -53q-14 0 -45 6q-485 111 -776 304q-294 -186 -741 -302q-27 -8 -45 -8q-21 0 -41 53q-33 84 -84 146q467 95 739 246
q-207 195 -331 473q-88 -1 -156 -3l-47 -1q-16 0 -20 4q-3 4 -3 19v157q0 17 5 20q3 3 18 3l278 -4h318v254h-492zM1324 763h-586q112 -206 283 -348q178 142 303 348z" />
    <glyph glyph-name="uni6534" unicode="&#xe0100;" 
d="M1958 63q-55 -75 -86 -160q-17 -37 -22 -43q-8 -10 -21 -10q-15 0 -46 6q-464 109 -768 314q-301 -194 -749 -316q-30 -8 -47 -8q-19 0 -41 53q-43 93 -84 146q455 96 748 262q-231 213 -365 510q-80 -1 -145 -3q-42 -1 -43 -1q-17 0 -20 4t-3 18v157q0 17 4 21q4 3 19 3
l278 -4h338v433q0 153 -14 263q134 -4 227 -15q35 -3 35 -22q0 -15 -12 -43q-17 -33 -17 -162v-39h457l233 4q16 0 20 -4q3 -4 3 -19v-160q0 -17 -5 -21q-3 -3 -18 -3l-233 4h-457v-216h328q41 0 53 6q15 6 27 6q26 0 88 -61q59 -57 59 -82q0 -15 -29 -35q-26 -17 -49 -58
q-153 -279 -399 -481q287 -161 756 -244zM1372 817h-670q131 -240 322 -389q209 160 348 389z" />
    <glyph glyph-name="uni6587" unicode="&#xe0100;" 
d="M1942 82q-62 -69 -96 -169q-20 -53 -41 -53q-13 0 -48 10q-422 147 -731 406q-303 -253 -731 -402q-45 -12 -49 -12q-19 0 -39 51q-31 87 -92 152q474 145 750 363q-252 272 -398 743h-39l-260 -4q-16 0 -19 4t-3 18v167q0 16 4 19t18 3l260 -4h471v98q0 151 -16 236
q154 -4 227 -15q33 0 33 -22q0 -12 -12 -41q-12 -21 -12 -154v-102h505l260 4q18 0 22 -4q3 -4 3 -18v-167q0 -16 -4 -19q-5 -3 -21 -3l-260 4h-47q-127 -461 -385 -741q292 -223 750 -348zM1336 1171h-646q114 -368 338 -598q207 215 308 598z" />
    <glyph glyph-name="uni6597" unicode="&#xe0100;" 
d="M1246 1708q149 -4 237 -16q31 -4 31 -23q0 -16 -10 -43q-17 -39 -17 -223v-815l145 16q111 12 195 25q8 1 45 8q13 2 18 2l9 1q12 0 14 -24l12 -172q1 -5 1 -9q0 -13 -21 -15q-240 -24 -262 -27l-156 -16v-154l4 -358q0 -21 -22 -21h-189q-22 0 -22 21l4 356v131
l-823 -90q-109 -11 -194 -22q-61 -8 -64 -8q-7 -1 -10 -1q-13 0 -15 21l-14 176q-1 6 -1 10q0 10 21 13q4 0 38 2q95 7 222 20l840 90v834q0 194 -16 311zM492 1126q189 -103 383 -274q10 -11 10 -19t-12 -26l-98 -129q-16 -19 -23 -19q-5 0 -23 14q-195 185 -375 283
q-14 11 -14 17t15 24l94 119q13 17 23 17q6 0 20 -7zM705 1583q197 -119 373 -291q11 -10 11 -16q0 -7 -13 -25l-103 -129q-14 -20 -24 -20q-8 0 -17 12q-143 160 -368 303q-13 7 -13 14t15 25l98 117q14 18 22 18q6 0 19 -8z" />
    <glyph glyph-name="uni65A4" unicode="&#xe0100;" 
d="M106 12q165 154 229 381q70 213 70 580v219q0 211 -14 340q97 -17 194 -49q394 39 766 147q125 36 209 76q67 -61 137 -153q20 -27 20 -41q0 -27 -37 -27q-45 -4 -125 -27q-440 -123 -935 -161v-281h989l285 4q16 0 19 -4t3 -18v-167q0 -16 -4 -19t-18 -3l-285 4h-252
v-668l4 -284q0 -21 -22 -21h-191q-17 0 -21 4q-3 4 -3 17l4 284v668h-512q-13 -307 -86 -528q-79 -240 -215 -391q-30 -33 -43 -33t-37 33q-53 73 -129 118z" />
    <glyph glyph-name="uni65B9" unicode="&#xe0100;" 
d="M399 1165l-258 -4q-16 0 -19 4q-3 5 -3 21v166q0 17 4 21q4 3 18 3l258 -4h502v133q0 132 -14 201q107 0 223 -10q33 -4 33 -23q0 -11 -12 -43q-13 -24 -13 -119v-139h539l258 4q14 0 18 -5q2 -4 2 -19v-166q0 -18 -4 -22q-3 -3 -16 -3l-258 4h-709q-3 -123 -16 -252h502
l241 4q25 0 25 -29q-4 -48 -8 -160q-23 -417 -68 -608q-36 -154 -115 -207q-70 -47 -215 -47q-94 0 -162 4q-44 3 -52 16q-7 10 -13 58q-13 104 -45 158q137 -19 252 -19q94 0 121 102q47 158 63 521h-557q-62 -303 -218 -504q-138 -176 -382 -321q-42 -23 -49 -23
q-14 0 -41 45q-46 71 -123 125q374 184 508 458q118 240 121 679h-318z" />
    <glyph glyph-name="uni65E0" unicode="&#xe0100;" 
d="M423 823l-263 -4q-22 0 -22 20v165q0 16 4 19t18 3l263 -4h460q33 163 39 372h-372l-277 -4q-16 0 -19 5q-3 4 -3 19v163q0 16 4 19t18 3l277 -4h960l277 4q16 0 19 -4t3 -18v-163q0 -17 -4 -21q-4 -3 -18 -3l-277 4h-367q-5 -190 -40 -372h532l260 4q16 0 20 -4
q3 -4 3 -18v-165q0 -20 -23 -20l-260 4h-580q-3 -11 -15 -49q-8 -26 -13 -41q74 -2 209 -14q35 -4 35 -25q0 -14 -13 -39q-14 -28 -14 -156v-290q0 -89 20 -106q33 -27 209 -27q185 0 223 45q48 50 48 264q71 -36 155 -56q35 -7 43 -14t8 -26q0 -9 -2 -29q-8 -138 -38 -212
q-23 -59 -70 -101q-82 -74 -373 -74q-303 0 -373 55q-38 32 -51 79q-12 44 -12 130v352q0 148 -10 228q-47 -127 -101 -226q-192 -364 -610 -610q-39 -23 -49 -23q-15 0 -45 45q-55 84 -117 125q245 115 402 264q134 126 233 304q55 101 98 227h-409z" />
    <glyph glyph-name="uni65E5" unicode="&#xe0100;" 
d="M574 -129h-183q-15 0 -18.5 3.5t-3.5 18.5l4 729v396l-4 535q0 17 4 21q4 3 19 3l282 -4h703l283 4q16 0 19 -5q3 -4 3 -19l-4 -474v-455l4 -720q0 -17 -4 -20t-18 -3h-182q-17 0 -20 4t-3 19v100h-859v-111q0 -16 -4 -19t-18 -3zM596 207h859v495h-859v-495zM596 1370
v-467h859v467h-859z" />
    <glyph glyph-name="uni66F0" unicode="&#xe0100;" 
d="M473 -129h-183q-15 0 -18.5 3.5t-3.5 18.5l4 729v396l-4 535q0 17 4 21q4 3 19 3l280 -4h907l281 4q16 0 19 -5q3 -4 3 -19l-4 -474v-455l4 -720q0 -17 -4 -20t-18 -3h-182q-18 0 -22 4q-3 4 -3 19v100h-1057v-111q0 -16 -4 -19t-18 -3zM495 1370v-467h641l256 4
q16 0 20 -4q3 -4 3 -18v-165q0 -16 -4 -19t-19 -3l-256 4h-641v-495h1057v1163h-1057z" />
    <glyph glyph-name="uni6708" unicode="&#xe0100;" 
d="M1092 92q108 -10 233 -10q72 0 72 72v358h-732q-29 -218 -108 -373q-63 -122 -186 -262q-32 -35 -43 -35q-15 0 -48 33q-59 60 -147 96q142 133 208 246q74 127 102 310q28 175 28 492v302l-4 278q0 18 4 22q4 3 18 3l273 -4h569l270 4q17 0 20 -5q3 -4 3 -20l-4 -278
v-805l6 -409q0 -128 -65 -191q-42 -38 -119 -49q-66 -10 -221 -10q-52 0 -61 9t-15 54q-14 101 -53 172zM686 711h711v259h-703q-4 -175 -8 -259zM1397 1417h-703v-248h703v248z" />
    <glyph glyph-name="uni6728" unicode="&#xe0100;" 
d="M422 1038l-262 -4q-17 0 -21 5q-3 4 -3 20v166q0 17 4 21q4 3 20 3l262 -4h474v195q0 186 -15 266q135 -4 230 -14q32 -4 32 -21q0 -11 -6 -29l-8 -24q-8 -30 -8 -172v-201h507l263 4q16 0 19 -5q3 -4 3 -19v-166q0 -18 -4 -22q-4 -3 -18 -3l-263 4h-434
q280 -475 795 -768q-62 -62 -105 -150q-24 -49 -38 -49t-43 20q-458 319 -693 777l17 -1010q0 -14 -5 -17q-4 -3 -20 -3h-188q-18 0 -21 4q-3 3 -3 16q0 23 3 172q11 441 13 807q-214 -437 -645 -749q-31 -23 -45 -23q-12 0 -39 45q-47 85 -115 144q244 134 455 358
q190 203 301 426h-396z" />
    <glyph glyph-name="uni6B20" unicode="&#xe0100;" 
d="M1964 88q-54 -74 -90 -166q-19 -51 -37 -51q-10 0 -47 10q-592 214 -762 678q-170 -460 -731 -680q-40 -14 -47 -14q-17 0 -45 49q-43 74 -109 129q420 130 611 364q168 207 175 516q0 105 -8 160q80 -2 213 -14q39 -7 39 -25q0 -11 -5 -25q-6 -15 -7 -22q-3 -8 -10 -94
q58 -341 295 -546q207 -179 565 -269zM184 896q259 237 385 599q39 105 53 217q139 -23 213 -43q35 -9 35 -35q0 -16 -23 -39q-20 -21 -55 -110l-41 -107h861q32 0 53 10q23 10 39 10q23 0 96 -66q63 -58 63 -82q0 -22 -18 -36q-32 -21 -52 -64q-82 -194 -231 -397
q-30 -39 -43 -39q-7 0 -51 27q-70 47 -139 67q147 166 237 369h-909q-115 -227 -256 -383q-30 -33 -43 -33t-45 35q-65 68 -129 100z" />
    <glyph glyph-name="uni6B62" unicode="&#xe0100;" 
d="M401 -70l-258 -4q-16 0 -19 4t-3 18v181q0 16 4 19t18 3l258 -4h35v834q0 164 -16 287q145 -4 237 -15q33 -3 33 -26q0 -14 -10 -41q-15 -35 -15 -183v-856h335v1274q0 158 -18 277q147 -4 239 -15q35 -3 35 -24q0 -14 -12 -47q-15 -43 -15 -189v-391h258l303 4
q16 0 20 -4q3 -4 3 -18v-179q0 -16 -5 -19q-3 -3 -18 -3l-303 4h-258v-670h426l256 4q16 0 19 -4t3 -18v-181q0 -15 -3.5 -18.5t-18.5 -3.5l-256 4h-1254z" />
    <glyph glyph-name="uni6B79" unicode="&#xe0100;" 
d="M400 1397l-262 -4q-17 0 -20 4t-3 18v168q0 18 4 22q4 3 19 3l262 -4h1208l262 4q16 0 20 -5q3 -4 3 -20v-168q0 -16 -5 -19q-3 -3 -18 -3l-262 4h-586q-56 -125 -119 -230h527q35 0 51 8q24 10 39 10q24 0 90 -60q64 -60 64 -82q0 -17 -18 -32q-16 -16 -52 -95
q-98 -213 -192 -351q-98 -145 -230 -271q-287 -276 -776 -451q-27 -8 -45 -8t-47 53q-46 90 -105 142q443 120 729 354q-149 140 -338 258q-16 13 -16 19q0 7 18 22l109 99q19 16 28 16q6 0 19 -8q209 -130 346 -252q159 168 273 432h-611q-170 -207 -434 -370
q-39 -23 -49 -23q-13 0 -43 45q-50 75 -117 121q453 235 654 654h-377z" />
    <glyph glyph-name="uni6BB3" unicode="&#xe0100;" 
d="M1950 80q-53 -53 -92 -146q-16 -39 -24 -48q-9 -10 -25 -10q-11 0 -41 5q-455 87 -739 256q-305 -173 -742 -266q-31 -6 -41 -6q-21 0 -47 53q-40 83 -90 139q425 64 733 213q-177 147 -321 371q-90 -1 -159 -3q-3 0 -35 -1h-11q-23 0 -23 20v154q0 16 5 19q3 3 18 3
l278 -4h807q33 0 54 10q17 10 32 10q23 0 78 -53q74 -71 74 -96q0 -24 -29 -43q-39 -26 -71 -69q-138 -187 -316 -322q273 -128 727 -186zM1309 641h-547q112 -153 271 -264q183 121 276 264zM154 1036q269 69 360 202q73 107 73 317l-5 73q0 17 4 20t19 3l227 -4h307l231 4
q18 0 22 -4q3 -4 3 -19l-4 -166v-211q0 -59 12 -71q23 -23 125 -23q105 0 135 37q26 29 29 188q57 -40 152 -67q41 -11 50 -17q10 -8 10 -27q0 -9 -3 -34q-11 -98 -35 -149q-20 -41 -59 -71q-72 -55 -332 -55q-185 0 -248 41q-65 41 -65 148v301h-350q-16 -226 -124 -364
q-105 -135 -310 -208q-31 -12 -48 -12q-16 0 -51 43q-59 78 -125 125z" />
    <glyph glyph-name="uni6BCB" unicode="&#xe0100;" 
d="M350 800l-243 -4q-17 0 -20 4t-3 19v156q0 16 4 19t19 3l243 -4h35q19 132 45 340q19 176 19 237v17q0 27 25 27l278 -4h663l281 4q24 0 24 -27l-10 -197l-20 -397h24l244 4q16 0 19 -4t3 -18v-156q0 -16 -3.5 -19.5t-18.5 -3.5l-244 4h-37q-16 -216 -37 -419l224 4
q16 0 19 -4t3 -19v-156q0 -15 -3.5 -18.5t-18.5 -3.5l-246 4l-2 -20q-23 -177 -91 -246q-70 -72 -216 -72h-50q-53 0 -98 4q-47 4 -57 12q-9 8 -16 40q-23 97 -54 155q123 -16 219 -16q78 0 109 33q28 30 41 110h-944q-13 -56 -31 -117q-7 -30 -37 -30q-18 0 -86 7
q-74 9 -92 14q-19 5 -19 17q0 6 5 19q39 116 59 203q55 251 96 499h-4zM1466 800h-356q-37 -285 -57 -419h374q15 138 39 419zM1499 1417h-323q-10 -129 -43 -424h346q13 191 20 424zM500 381h338q31 184 61 419h-326q-21 -148 -73 -419zM655 1417q-16 -141 -53 -424h320
q27 216 43 424h-310z" />
    <glyph glyph-name="uni6BD4" unicode="&#xe0100;" 
d="M1755 1329q77 -57 156 -139q18 -19 18 -37q0 -19 -29 -27q-23 -7 -102 -65q-224 -183 -479 -307v-529q0 -96 27 -121q31 -22 168 -22q136 0 182 43q28 25 38 99q8 60 9 204q42 -27 153 -61q36 -10 42 -17q8 -8 8 -30q0 -8 -1 -23q-8 -166 -37 -248q-23 -66 -69 -100
q-92 -68 -336 -68q-158 0 -230 13q-63 11 -103 38q-39 28 -53 64q-15 41 -15 119v1214q0 218 -16 338q135 -3 221 -14q41 -7 41 -29q0 -17 -14 -41q-15 -26 -15 -240v-364q194 111 342 244q61 51 94 106zM970 360q-2 -35 -2 -69t2 -68q1 -21 1 -33q0 -28 -13 -38
q-8 -7 -44 -21q-305 -119 -644 -215q-46 -14 -66 -27q-22 -14 -33 -14q-16 0 -26 29q-24 82 -43 215q61 7 184 30l43 8v1192q0 180 -14 312q133 -4 223 -15q33 -3 33 -22q0 -14 -12 -43q-13 -25 -13 -228v-274h160l241 4q23 0 23 -20v-164q0 -17 -4 -20t-19 -3l-241 4h-160
v-665q210 58 424 145z" />
    <glyph glyph-name="uni6BDB" unicode="&#xe0100;" 
d="M1763 1159h8q14 0 16 -23l15 -159v-10q0 -15 -25 -17q-86 -6 -276 -25l-459 -43v-239l594 53q112 9 192 19q15 1 45 5q14 2 19 3h7q15 0 15 -21l11 -162v-7q0 -17 -27 -19l-76 -5q-77 -6 -176 -14l-604 -53v-213q0 -102 70 -119q64 -18 243 -18q138 0 196 11q51 9 83 34
q57 49 65 258q46 -38 158 -76q35 -10 44 -17q9 -8 9 -23q0 -9 -4 -31q-20 -197 -116 -273q-57 -48 -162 -66q-97 -16 -283 -16q-310 0 -397 41q-127 60 -127 244v244l-414 -35q-111 -10 -193 -19q-62 -7 -63 -7q-6 -1 -9 -1q-13 0 -15 21l-13 163v8q0 15 25 17q60 0 256 19
l426 36v238l-299 -27q-118 -11 -206 -22l-66 -9h-8q-15 0 -17 25l-14 160q-1 5 -1 8q0 14 25 16q46 0 277 23l309 29v241q-189 -33 -436 -63q-24 -3 -33 -3q-19 0 -27 12q-6 10 -14 42q-25 77 -68 135q584 44 1045 197q93 32 151 74q87 -62 158 -134q23 -22 23 -43
q0 -27 -47 -30q-34 -3 -131 -35q-182 -61 -400 -109v-264l449 41q119 12 206 24q15 2 48 6q13 2 18 3z" />
    <glyph glyph-name="uni6C0F" unicode="&#xe0100;" 
d="M1045 346q-7 -79 -7 -120q0 -15 1 -27q0 -53 -10 -64q-8 -9 -54 -22q-266 -90 -665 -189q-53 -12 -83 -29q-18 -12 -32 -12q-18 0 -29 29q-21 67 -45 209q98 10 190 29q5 0 21 4v997q0 233 -12 346q66 -12 207 -51q499 58 890 182q84 25 136 60q89 -64 161 -140
q21 -17 21 -37q0 -21 -43 -24q-5 -1 -98 -27q-181 -54 -388 -100q10 -227 31 -406l338 17q188 8 285 16q15 0 18 -5q2 -3 2 -19l2 -164q0 -17 -3.5 -21t-18.5 -4q-97 0 -287 -8l-301 -14q38 -189 104 -346q60 -136 151 -222q73 -69 126 -69q88 0 106 291q40 -43 138 -84
q38 -17 47 -25q11 -10 11 -27q0 -10 -5 -39q-36 -207 -118 -290q-65 -66 -175 -66q-134 0 -272 135q-130 127 -213 334q-67 156 -113 397l-512 -24v-514q245 57 498 143zM991 1317q-182 -34 -444 -62v-333l479 22q-26 186 -35 373z" />
    <glyph glyph-name="uni6C14" unicode="&#xe0100;" 
d="M1405 665h-872l-283 -4q-16 0 -19 4t-3 18v159q0 16 4 19t18 3l283 -4h784l280 4q27 0 27 -25q-6 -67 -6 -140q0 -32 2 -93q8 -217 45 -344q46 -154 84 -154q40 0 62 256q48 -45 131 -80q37 -18 37 -41q0 -8 -5 -41q-22 -181 -90 -270q-56 -72 -131 -72q-187 0 -284 317
q-55 178 -64 488zM117 1114q220 197 352 498q24 54 39 123q128 -22 207 -45q27 -9 27 -31q0 -17 -14 -29q-28 -20 -42 -51q-19 -50 -39 -88h912l284 4q17 0 20 -4t3 -18v-159q0 -16 -4 -19t-19 -3l-284 4h-1010q-92 -156 -213 -282q-31 -37 -43 -37q-11 0 -45 37
q-67 66 -131 100zM803 989l-270 -4q-18 0 -22 4q-3 4 -3 18v142q0 17 5 21q4 3 20 3l270 -4h569l273 4q16 0 19 -5q3 -4 3 -19v-142q0 -16 -4 -19t-18 -3l-273 4h-569z" />
    <glyph glyph-name="uni6C34" unicode="&#xe0100;" 
d="M1977 270q-68 -60 -115 -149q-24 -43 -37 -43q-12 0 -49 25q-232 158 -410 394q-159 210 -239 439q1 -154 9 -485q7 -254 7 -348q0 -137 -82 -189q-62 -44 -301 -47q-49 0 -59 9q-9 8 -21 52q-25 103 -67 158q71 -7 151 -7q26 0 52 1q102 3 102 65v1321q0 153 -14 234
q161 -5 225 -12q35 -4 35 -23q0 -13 -6 -30q-8 -20 -8 -23q-13 -40 -13 -144v-94q48 -218 160 -426q163 143 285 297q41 50 69 109q109 -65 174 -119q29 -24 29 -41q0 -20 -29 -35q-38 -19 -108 -92q-114 -126 -314 -289q241 -341 574 -508zM70 239q393 290 539 733h-230
l-213 -4q-16 0 -19 4t-3 18v162q0 17 4 20t18 3l213 -4h275q33 0 49 8l14 7q6 3 10 3q30 0 86 -61q66 -66 66 -93q0 -20 -21 -41q-23 -23 -40 -73q-163 -493 -547 -817q-35 -29 -45 -29q-15 0 -41 41q-48 76 -115 123z" />
    <glyph glyph-name="uni706B" unicode="&#xe0100;" 
d="M1962 66q-69 -69 -113 -160q-23 -49 -41 -49q-13 0 -47 18q-583 312 -717 909q-23 -122 -53 -204q-90 -260 -281 -440q-160 -152 -415 -271q-40 -16 -49 -16q-19 0 -41 47q-41 84 -111 141q313 119 485 291q150 150 228 375q90 251 90 739q0 149 -15 244q101 -3 230 -15
q37 -6 37 -28q0 -13 -14 -41q-13 -37 -15 -150v-63q41 -1005 842 -1327zM473 1309l158 -47q25 -8 25 -19q0 -4 -3 -14q-93 -339 -237 -551q-10 -13 -21 -13q-7 0 -25 7l-147 73q-24 12 -24 23q0 6 8 16q157 191 227 511q5 19 16 19q5 0 23 -5zM1349 801q155 214 226 420
q27 74 32 116q126 -43 201 -77q35 -18 35 -35t-18 -33q-27 -22 -45 -65q-96 -213 -203 -373q-28 -43 -39 -43q-13 0 -49 25q-74 43 -140 65z" />
    <glyph glyph-name="uni722A" unicode="&#xe0100;" 
d="M346 1524q107 -21 205 -51q529 41 930 153q97 27 178 66q72 -53 147 -148q15 -20 15 -37q0 -26 -33 -26q-48 -3 -145 -25q-10 -4 -31 -8q14 -509 87 -803q85 -340 282 -598q-68 -61 -123 -145q-29 -39 -39 -39t-35 37q-220 323 -303 750q-54 281 -69 747
q-164 -37 -291 -56v-1093l4 -342q0 -18 -4 -22q-4 -3 -19 -3h-180q-16 0 -19 5q-3 4 -3 20l4 342v1063q-165 -17 -332 -31v-229q0 -389 -78 -693q-76 -261 -219 -473q-22 -37 -35 -37q-12 0 -37 35q-62 87 -133 133q157 209 225 447q66 237 66 565v160q0 178 -15 336z" />
    <glyph glyph-name="uni7236" unicode="&#xe0100;" 
d="M1964 70q-53 -48 -98 -154q-15 -36 -20 -43q-8 -10 -21 -10q-8 0 -45 10q-440 130 -760 414q-301 -279 -733 -422q-34 -12 -47 -12q-17 0 -45 51q-45 81 -111 143q480 132 780 395q-187 213 -309 478q-6 11 -6 16q0 7 27 20l133 80q16 9 22 9q8 0 17 -19
q103 -241 268 -430q120 141 209 313q42 78 61 148q149 -60 203 -92q27 -15 27 -33q0 -14 -25 -35q-30 -27 -65 -90q-111 -197 -255 -365q324 -275 793 -372zM676 1661q115 -58 193 -115q22 -17 22 -35q0 -16 -27 -32q-26 -15 -53 -53q-198 -287 -479 -475q-34 -25 -45 -25
q-13 0 -45 47q-48 69 -125 125q320 187 485 426q47 64 74 137zM1939 1139q-57 -55 -110 -138q-30 -47 -43 -47q-9 0 -47 22q-334 203 -589 550q-7 11 -7 17q0 9 20 24l121 80q22 14 27 14q9 0 18 -12q128 -169 305 -312q151 -122 305 -198z" />
    <glyph glyph-name="uni723B" unicode="&#xe0100;" 
d="M1941 82q-47 -58 -84 -158q-12 -36 -18 -44q-8 -9 -23 -9q-14 0 -45 6q-474 134 -760 350q-274 -216 -733 -354q-27 -8 -47 -8q-22 0 -43 53q-44 92 -88 141q465 105 750 310q-178 177 -303 426q-6 10 -6 15q0 8 24 21l129 62q17 9 23 9q8 0 16 -15q118 -225 282 -377
q97 93 177 223q43 70 84 178q99 -40 180 -84q39 -21 39 -36q0 -19 -27 -39q-30 -25 -75 -95q-102 -157 -214 -278q291 -197 762 -297zM508 1620q273 -88 557 -213q169 99 286 211q54 48 88 96q127 -49 195 -90q25 -14 25 -31q0 -22 -31 -33q-20 -7 -69 -49
q-128 -109 -273 -205q232 -111 473 -249q16 -9 16 -17q0 -7 -10 -20l-94 -137q-16 -24 -26 -24q-6 0 -17 7q-297 181 -561 309q-325 -177 -744 -282q-31 -8 -41 -8q-19 0 -45 53q-36 79 -88 137q356 62 680 209q-207 91 -457 176q-16 7 -16 14q0 6 12 21l97 106q19 21 29 21
q4 0 14 -2z" />
    <glyph glyph-name="uni723F" unicode="&#xe0100;" 
d="M1299 1714q135 -4 231 -14q35 -4 35 -23q0 -10 -10 -41q-15 -36 -15 -227v-1190l4 -358q0 -18 -4 -21q-4 -4 -18 -4h-189q-16 0 -19 5q-3 4 -3 20l4 356v332h-466q-14 -259 -99 -421q-82 -156 -249 -265q-35 -23 -47 -23q-15 0 -45 45q-62 92 -115 132q188 98 263 235
q60 113 69 297h-61l-269 -4q-16 0 -19 4t-3 18v162q0 18 4 22q4 3 18 3l269 -4h750v257h-503l-252 -4q-16 0 -19 4t-3 19l4 194v246q0 90 -12 176q104 -3 219 -12q41 -3 41 -25q0 -7 -7 -21q-8 -18 -10 -22q-8 -29 -8 -98v-260h550v201q0 200 -16 309z" />
    <glyph glyph-name="uni7247" unicode="&#xe0100;" 
d="M106 24q173 197 223 453q47 266 47 632v265q0 189 -14 299q122 -4 227 -12q35 -4 35 -29q0 -14 -15 -43q-12 -28 -12 -172v-203h488v225q0 181 -14 265q137 -4 229 -15q31 -3 31 -22q0 -9 -13 -41q-10 -31 -10 -154v-258h293l281 4q17 0 21 -4q3 -4 3 -18v-173
q0 -16 -4 -19t-20 -3l-281 4h-1006q0 -127 -10 -280h549l278 4q17 0 20 -4t3 -19l-4 -215v-327l4 -303q0 -21 -23 -21h-186q-22 0 -22 21l4 303v354h-646l-16 -100q-50 -267 -223 -514q-23 -35 -35 -35q-14 0 -41 33q-72 85 -141 122z" />
    <glyph glyph-name="uni7259" unicode="&#xe0101;" 
d="M78 137q326 115 587 294q236 160 384 349h-535q-16 -51 -53 -146q-8 -18 -23 -18q-7 0 -20 2l-156 21q-31 4 -31 14q0 5 5 14q107 224 164 451q20 78 30 176q106 -6 211 -23q29 -3 29 -26q0 -16 -18 -37q-15 -20 -33 -88q-31 -111 -39 -139h674l-2 415h-723l-279 -4
q-16 0 -19 4t-3 18v161q0 16 4 19q3 3 18 3l279 -4h1005l277 4q16 0 19 -4t3 -18v-161q0 -16 -4 -19t-18 -3l-277 4h-63l4 -415h184l256 4q15 0 18 -5q3 -4 3 -19v-163q0 -22 -21 -22l-256 4h-184l4 -340l4 -342q0 -125 -66 -180q-72 -63 -325 -63q-52 0 -62 10q-9 9 -18 53
q-17 86 -53 152q98 -10 204 -10q55 0 76 21t21 66l-2 330q0 158 2 237q-365 -475 -981 -735q-32 -14 -47 -14q-18 0 -45 47q-46 75 -109 125z" />
    <glyph glyph-name="uni725B" unicode="&#xe0100;" 
d="M898 1713q140 -4 227 -15q33 -3 33 -20q0 -13 -13 -41q-12 -32 -12 -168v-164h338l280 4q17 0 20 -5q3 -4 3 -19v-163q0 -17 -4 -21q-4 -3 -19 -3l-280 4h-338v-377h504l258 4q16 0 19 -4t3 -18v-169q0 -15 -3.5 -18.5t-18.5 -3.5l-258 4h-504v-283l4 -378q0 -17 -4 -20
t-19 -3h-184q-16 0 -19 4t-3 19l4 376v285h-524l-258 -4q-17 0 -20 4t-3 18v169q0 16 4 19t19 3l258 -4h524v377h-418q-82 -132 -180 -235q-32 -35 -39 -35q-11 0 -45 41q-56 65 -121 104q226 201 340 498q26 73 39 152q105 -19 194 -46q37 -10 37 -30q0 -19 -18 -37
q-20 -18 -37 -66l-59 -143h307v158q0 168 -14 250z" />
    <glyph glyph-name="uni72AC" unicode="&#xe0100;" 
d="M424 958l-262 -4q-16 0 -20 4q-3 4 -3 18v173q0 16 4 19t19 3l262 -4h446q11 153 11 297q0 161 -13 244q113 -4 234 -15q39 -5 39 -24q0 -10 -12 -43q-16 -32 -19 -152q-3 -174 -14 -307h530l264 4q16 0 20 -4q3 -4 3 -18v-173q0 -16 -5 -19q-3 -3 -18 -3l-264 4h-489
q116 -360 341 -580q188 -184 490 -307q-63 -72 -109 -160q-26 -49 -40 -49q-12 0 -48 16q-296 152 -476 356q-175 198 -281 484q-33 -105 -70 -184q-190 -412 -651 -648q-44 -18 -49 -18q-15 0 -41 47q-45 83 -113 148q274 114 440 273q139 134 226 321q59 124 88 301h-420z
M1452 1624q157 -120 270 -258q10 -11 10 -17q0 -8 -18 -24l-111 -98q-20 -17 -25 -17q-6 0 -15 13q-109 151 -259 274q-12 9 -12 19q0 7 19 22l98 82q15 13 23 13q6 0 20 -9z" />
    <glyph glyph-name="uni7384" unicode="&#xe0100;" 
d="M1512 532q208 -259 358 -551q4 -11 4 -16q0 -10 -22 -23l-138 -84q-15 -10 -24 -10q-6 0 -15 16q-57 127 -90 188q-667 -98 -1249 -143q-55 -7 -74 -15q-28 -14 -39 -14q-21 0 -32 37q-9 35 -22 108q-16 87 -19 105q54 -2 94 -2q68 0 131 4l121 6q144 133 293 281
q-224 253 -468 438q-12 10 -12 17q0 8 17 24l108 109q16 15 24 15q7 0 19 -9l115 -96q97 111 172 227q34 51 68 125h-428l-258 -4q-23 0 -23 20v163q0 17 4 21q4 3 19 3l258 -4h493v53q0 131 -14 189q106 0 225 -11q31 -3 31 -20q0 -9 -5 -21q-6 -14 -7 -18
q-11 -30 -11 -119v-53h533l258 4q16 0 19 -5q3 -4 3 -19v-163q0 -20 -22 -20l-258 4h-758q84 -40 145 -78q29 -16 29 -37q0 -19 -31 -35q-30 -16 -63 -63q-99 -139 -223 -279q112 -102 198 -194q163 172 291 328q92 120 129 196q130 -74 186 -119q27 -19 27 -43
q0 -15 -31 -30q-24 -13 -90 -84q-295 -353 -659 -670q348 30 680 78q-58 91 -141 194q-7 10 -7 15q0 7 19 20l121 72q14 9 21 9q8 0 20 -17z" />
    <glyph glyph-name="uni7389" unicode="&#xe0100;" 
d="M396 -14l-258 -4q-17 0 -20 4t-3 18v170q0 17 4 20t19 3l258 -4h489v528h-248l-282 -4q-17 0 -20 4t-3 18v166q0 17 4 20t19 3l282 -4h248v442h-377l-276 -4q-16 0 -20 4q-3 4 -3 18v171q0 16 4 19t19 3l276 -4h1038l275 4q17 0 21 -4q3 -4 3 -18v-171q0 -16 -4 -19
t-20 -3l-275 4h-432v-442h301l283 4q16 0 19 -4t3 -19v-166q0 -16 -4 -19t-18 -3l-283 4h-301v-528h543l256 4q16 0 19 -4t3 -19v-170q0 -15 -3.5 -18.5t-18.5 -3.5l-256 4h-1261zM1463 647q117 -123 215 -276q7 -11 7 -16q0 -7 -22 -21l-121 -74q-12 -10 -24 -10
q-8 0 -17 14q-93 163 -209 285q-9 10 -9 17q0 8 22 20l115 65q15 8 22 8q8 0 21 -12z" />
    <glyph glyph-name="uni74DC" unicode="&#xe0100;" 
d="M1378 496q119 -221 196 -510q4 -12 4 -17q0 -13 -24 -20l-137 -43q-18 -6 -25 -6q-10 0 -14 18q-18 82 -43 168q-281 -74 -655 -141q-44 -9 -71 -25q-22 -14 -35 -14q-22 0 -31 29q-24 64 -51 204q102 6 219 21q104 13 178 26v1131q-129 -15 -329 -33v-256
q0 -193 -29 -400q-21 -157 -49 -259q-77 -254 -223 -477q-22 -31 -35 -31t-35 29q-59 92 -123 143q150 186 217 422q66 241 66 551v186q0 178 -15 336q100 -17 211 -51q483 37 921 153q101 26 195 62q69 -57 131 -144q17 -19 17 -41q0 -11 -16 -19q-13 -7 -28 -7
q-51 0 -133 -21l-10 -2q11 -512 83 -807q84 -342 279 -590q-57 -50 -119 -157q-21 -37 -34 -37q-12 0 -37 35q-218 320 -303 750q-59 297 -70 755q-138 -31 -317 -59v-1125q4 1 91 19q48 10 83 18q-23 57 -72 172q-3 11 -3 16q0 11 23 19l111 39q16 6 23 6q9 0 18 -16z" />
    <glyph glyph-name="uni74E6" unicode="&#xe0100;" 
d="M987 805q141 -156 223 -313q7 -12 7 -19q0 -12 -25 -24l-129 -66q-24 -10 -27 -10q-8 0 -16 14q-94 190 -207 326q-10 12 -10 17q0 8 22 20l115 61q15 9 24 9q10 0 23 -15zM440 1390l-264 -4q-16 0 -20 4q-3 4 -3 18v167q0 16 5 19q3 3 18 3l264 -4h1180l266 4
q16 0 20 -4q3 -4 3 -18v-167q0 -16 -5 -19q-3 -3 -18 -3l-266 4h-770q-17 -135 -33 -235h471l233 4q23 0 23 -27q-7 -88 -14 -297l-27 -661v-12q0 -40 19 -56q18 -18 88 -18q86 0 112 35q32 46 35 268q55 -45 139 -66q42 -11 51 -19q10 -10 10 -34q0 -10 -1 -31
q-12 -216 -82 -286q-73 -70 -279 -70q-197 0 -248 35q-66 43 -63 153v35q-475 -121 -963 -196q-85 -13 -108 -25q-33 -16 -43 -16q-21 0 -29 27q-16 50 -47 220q133 3 309 27q150 615 232 1245h-195zM1321 956h-533q-71 -437 -153 -778q321 52 657 129z" />
    <glyph glyph-name="uni7518" unicode="&#xe0100;" 
d="M377 1130l-254 -4q-14 0 -17 5q-3 4 -3 20v154q0 22 20 22l254 -4h99v88q0 165 -17 291q138 -4 230 -14q33 -4 33 -23q0 -14 -13 -43q-12 -25 -12 -207v-92h647v90q0 179 -15 289q140 -4 228 -14q33 -4 33 -23q0 -15 -11 -39q-14 -32 -14 -211v-92h106l252 4q16 0 20 -4
q3 -4 3 -18v-154q0 -18 -5 -22q-3 -3 -18 -3l-252 4h-106v-644l4 -599q0 -16 -5 -19q-3 -3 -18 -3h-180q-16 0 -19 4t-3 18v111h-647v-123q0 -20 -23 -20h-180q-22 0 -22 20l4 592v663h-99zM1344 188v388h-647v-388h647zM697 766h647v364h-647v-364z" />
    <glyph glyph-name="uni751F" unicode="&#xe0100;" 
d="M407 -61l-260 -4q-16 0 -20 4q-3 4 -3 18v173q0 16 5 19q3 3 18 3l260 -4h514v372h-225l-283 -4q-16 0 -19 4t-3 18v167q0 20 22 20l283 -4h225v350h-430q-77 -156 -180 -286q-28 -37 -39 -37q-9 0 -45 33q-59 59 -129 91q211 246 329 599q23 69 29 135q73 -13 199 -49
q37 -10 37 -31q0 -13 -21 -37q-19 -20 -39 -78l-49 -135h338v107q0 194 -16 311q143 -4 231 -15q33 -3 33 -22q0 -17 -10 -41q-15 -37 -15 -227v-113h352l281 4q18 0 21 -4t3 -18v-169q0 -16 -4 -19t-20 -3l-281 4h-352v-350h256l283 4q22 0 22 -20v-167q0 -15 -3.5 -18.5
t-18.5 -3.5l-283 4h-256v-372h485l260 4q17 0 20 -4t3 -18v-173q0 -15 -3.5 -18.5t-19.5 -3.5l-260 4h-1222z" />
    <glyph glyph-name="uni7528" unicode="&#xe0100;" 
d="M1368 73q112 -8 190 -8q66 0 66 67v340h-482v-244l4 -303q0 -16 -4 -19t-18 -3h-177q-16 0 -19 4t-3 18l4 303v244h-467q-37 -335 -178 -567q-23 -41 -37 -41q-10 0 -43 33q-63 63 -145 104q121 156 168 382q43 206 43 547v336l-4 335q0 18 5 22q4 3 20 3l280 -4h963
l282 4q17 0 20 -5q3 -4 3 -20l-4 -335v-907l4 -282q0 -110 -68 -166q-59 -53 -270 -53q-50 0 -58 8q-8 7 -18 51q-20 89 -57 156zM1142 662h482v289h-482v-289zM1624 1425h-482v-284h482v284zM477 662h452v289h-446v-23q0 -146 -6 -266zM483 1141h446v284h-446v-284z" />
    <glyph glyph-name="uni7530" unicode="&#xe0100;" 
d="M406 -117h-177q-15 0 -18.5 3.5t-3.5 18.5l4 729v394l-4 537q0 16 4 19t19 3l278 -4h1032l279 4q16 0 19 -4t3 -18l-4 -476v-455l4 -727q0 -16 -4 -19t-18 -3h-176q-17 0 -20 4t-3 18v113h-1192v-115q0 -16 -4 -19t-18 -3zM1120 215h500v497h-500v-497zM1620 1388h-500
v-483h500v483zM428 215h481v497h-481v-497zM428 1388v-483h481v483h-481z" />
    <glyph glyph-name="uni758B" unicode="&#xe0100;" 
d="M1415 1099q125 126 197 252h-463v-487h254l284 4q17 0 20 -5q3 -4 3 -19v-161q0 -15 -3.5 -18.5t-19.5 -3.5l-284 4h-254v-514q120 -21 303 -21q254 0 518 33q-29 -62 -45 -160q-6 -53 -17 -61q-10 -8 -57 -11q-183 -14 -389 -14q-276 0 -459 50q-150 41 -266 124
q-124 92 -215 236q-81 -231 -221 -405q-30 -37 -41 -37q-12 0 -45 33q-55 55 -137 96q298 283 344 870q7 75 7 131q0 22 -1 43q86 -4 201 -24q43 -9 43 -31q0 -15 -14 -37q-15 -20 -23 -92q-21 -183 -47 -305q80 -165 223 -281q55 -44 115 -71v1134h-438l-267 -4
q-16 0 -19 4t-3 18v159q0 16 4 19t18 3l267 -4h1183q35 0 55 8q17 8 27 8q24 0 96 -64q70 -58 70 -84q0 -21 -29 -41q-22 -17 -49 -59q-100 -166 -197 -276q-31 -35 -47 -35q-8 0 -47 23q-67 47 -135 73z" />
    <glyph glyph-name="uni7592" unicode="&#xe0100;" 
d="M419 581q-125 -71 -172 -94q-44 -22 -59 -41q-15 -18 -35 -18t-28 24q-21 65 -47 187q94 19 163 49q78 32 203 98q8 89 8 217l-4 426q0 17 4 20t19 3l288 -4h289v102q0 93 -14 162q100 0 219 -10q33 -3 33 -23q0 -7 -12 -37q-11 -23 -11 -92v-102h369l285 4q16 0 19 -4
t3 -18v-158q0 -17 -4 -20t-18 -3l-285 4h-979v-250q0 -367 -74 -639q-67 -252 -233 -475q-22 -31 -39 -31q-13 0 -41 31q-56 68 -119 115q168 181 242 442q18 61 30 135zM418 995q3 -8 3 -14q0 -9 -13 -18l-117 -86q-8 -6 -13 -6q-8 0 -14 16q-73 197 -157 344q-5 9 -5 14
q0 7 15 15l113 65q9 5 15 5q8 0 17 -13q70 -107 156 -322z" />
    <glyph glyph-name="uni7676" unicode="&#xe0100;" 
d="M78 465q208 86 393 235q-118 142 -256 250q-18 11 -18 23q0 7 16 20l105 88q15 12 24 12q7 0 21 -10q154 -121 260 -244q137 141 219 296h-248l-215 -4q-18 0 -21 4q-4 4 -4 18v154q0 16 5 19q4 3 20 3l215 -4h291l213 4q21 0 29 -23q15 -57 38 -108q39 -83 84 -152
q78 72 136 150q25 31 55 90q67 -33 163 -98q23 -15 23 -33q0 -16 -25 -29q-30 -13 -57 -45q-105 -116 -180 -184q55 -58 113 -113q129 116 194 203q27 31 58 90q107 -55 163 -96q25 -17 25 -35q0 -13 -27 -27q-37 -20 -61 -47q-109 -124 -205 -203q175 -120 352 -176
q-39 -49 -86 -147q-25 -51 -40 -51q-13 0 -46 16q-278 138 -489 349q-183 183 -291 399q-242 -471 -762 -755q-33 -18 -47 -18q-16 0 -45 49q-48 85 -92 130z" />
    <glyph glyph-name="uni767D" unicode="&#xe0100;" 
d="M507 -119h-182q-20 0 -20 21l4 622v363l-4 478q0 23 20 23l285 -4h152q56 100 110 236q26 70 31 118q136 -22 223 -45q33 -7 33 -28q0 -20 -25 -37q-22 -18 -45 -66q-49 -100 -94 -178h443l284 4q21 0 21 -23l-4 -429v-410l4 -620q0 -21 -20 -21h-183q-22 0 -22 21v98
h-988v-102q0 -21 -23 -21zM530 203h988v401h-988v-401zM530 1185v-386h988v386h-988z" />
    <glyph glyph-name="uni76AE" unicode="&#xe0100;" 
d="M1956 60q-46 -58 -82 -158q-19 -54 -40 -54q-12 0 -46 9q-385 102 -639 279q-245 -182 -561 -283q-38 -10 -47 -10q-20 0 -39 51q-36 82 -88 137q335 83 571 240q-199 196 -317 481h-141q-10 -193 -31 -309q-51 -295 -217 -541q-28 -37 -39 -37q-9 0 -39 33
q-60 71 -131 117q163 193 219 467q37 212 37 639l-4 299q0 17 4 21q4 3 19 3l304 -4h322q0 158 -14 270q131 -3 219 -16q31 -3 31 -21q0 -11 -6 -29q-8 -20 -9 -24q-8 -38 -8 -180h489q38 0 52 8t24 8q24 0 84 -51q64 -53 64 -78q0 -16 -16 -33q-24 -20 -39 -57
q-49 -111 -113 -201q-26 -41 -41 -41q-13 0 -49 19q-62 29 -136 47q71 88 115 189h-434v-312h293q29 0 45 8q12 6 24 6q21 0 86 -55q66 -55 66 -82q0 -19 -18 -35q-22 -16 -45 -61q-135 -259 -322 -440q249 -147 643 -219zM535 1094q0 -105 -2 -156h438v312h-436v-156z
M1415 752h-530q94 -210 260 -354q162 150 270 354z" />
    <glyph glyph-name="uni76BF" unicode="&#xe0100;" 
d="M367 10l-250 -4q-20 0 -20 22v161q0 17 4 21q3 3 16 3l177 -4v983l-4 305q0 17 4 20t18 3l280 -4h873l280 4q16 0 20 -4q3 -4 3 -19l-4 -305v-983l176 4q16 0 19 -5q3 -4 3 -19v-161q0 -15 -3.5 -18.5t-18.5 -3.5l-250 4h-1323zM1545 1321h-207v-1112h207v1112zM924 209
h205v1112h-205v-1112zM513 209h200v1112h-200v-1112z" />
    <glyph glyph-name="uni76EE" unicode="&#xe0100;" 
d="M542 -141h-180q-15 0 -18.5 3.5t-3.5 18.5l4 758v401l-4 551q0 17 4 20t19 3l284 -4h758l284 4q17 0 20 -4t3 -19l-4 -483v-465l4 -754q0 -16 -4 -19t-18 -3h-183q-16 0 -19 4t-3 18v111h-918v-119q0 -16 -4 -19q-5 -3 -21 -3zM567 199h918v282h-918v-282zM567 676h918
v272h-918v-272zM567 1411v-268h918v268h-918z" />
    <glyph glyph-name="uni77DB" unicode="&#xe0100;" 
d="M92 243q460 219 748 590h-408l-258 -4q-18 0 -21 4q-4 4 -4 18v161q0 16 5 19q4 3 20 3l258 -4h514q-126 96 -301 198q-11 7 -11 12q0 7 15 19l109 94q17 14 26 14q7 0 17 -6q108 -60 235 -149q192 111 328 235h-715l-281 -4q-22 0 -22 20v158q0 17 4 20t18 3l281 -4h827
q42 0 54 6q24 8 32 8q30 0 100 -66q72 -69 72 -96q0 -28 -35 -47q-43 -24 -76 -53q-168 -157 -425 -307l65 -55h455q23 0 43 8q17 8 25 8q23 0 88 -55q76 -68 76 -97t-25 -43q-26 -17 -53 -51q-183 -232 -338 -358q-34 -31 -45 -31t-47 33q-66 62 -131 96q182 129 315 293
h-414l10 -471q2 -64 5 -161q2 -66 2 -95q0 -148 -76 -205q-44 -35 -146 -46q-64 -7 -192 -7q-50 0 -59 10q-9 9 -19 56q-23 91 -70 157q116 -12 248 -12q88 0 88 88l-4 367q-1 27 -1 59q0 46 3 168q-267 -407 -712 -653q-36 -21 -50 -21q-15 0 -41 45q-43 76 -106 131z" />
    <glyph glyph-name="uni77E2" unicode="&#xe0100;" 
d="M1952 84q-61 -70 -98 -158q-20 -53 -39 -53q-8 0 -47 14q-523 219 -737 623q-19 -44 -48 -98q-113 -204 -276 -325q-150 -112 -403 -204q-34 -12 -48 -12q-17 0 -43 51q-42 81 -104 137q287 80 449 194q141 99 229 253q37 63 59 137h-432l-260 -4q-16 0 -19 4t-3 19v163
q0 17 4 20t18 3l260 -4h477q22 147 25 358h-340q-84 -129 -188 -233q-35 -35 -46 -35q-9 0 -43 37q-55 58 -124 96q256 213 372 535q24 64 33 123q128 -27 196 -49q35 -13 35 -31q0 -19 -20 -37q-21 -17 -37 -59q-29 -69 -67 -150h784l278 4q17 0 20 -4t3 -19v-160
q0 -16 -4 -19t-19 -3l-278 4h-338q-3 -217 -20 -358h536l260 4q16 0 20 -4q3 -4 3 -19v-163q0 -16 -3.5 -19.5t-19.5 -3.5l-260 4h-483q128 -217 343 -359q180 -120 443 -200z" />
    <glyph glyph-name="uni77F3" unicode="&#xe0100;" 
d="M435 1362l-265 -4q-16 0 -19 4t-3 18v165q0 16 4 19t18 3l265 -4h1183l264 4q16 0 20 -4q3 -4 3 -18v-165q0 -16 -4 -19t-19 -3l-264 4h-670q-82 -268 -209 -475h707l276 4q18 0 22 -4q3 -4 3 -19l-4 -276v-258l4 -422q0 -17 -4 -20q-5 -3 -20 -3h-184q-17 0 -20 4t-3 19
v100h-752v-117q0 -16 -4 -19t-19 -3h-184q-16 0 -19 4t-3 18l4 429v296q-125 -134 -272 -241q-40 -27 -47 -27q-15 0 -41 47q-49 78 -109 127q495 293 641 836h-276zM764 688v-475h752v475h-752z" />
    <glyph glyph-name="uni793A" unicode="&#xe0101;" 
d="M406 889l-258 -4q-16 0 -20 4q-3 4 -3 18v171q0 16 5 19q3 3 18 3l258 -4h1241l258 4q16 0 19 -4t3 -18v-171q0 -16 -4 -19t-18 -3l-258 4h-506v-500l6 -284q0 -75 -16 -114q-14 -37 -49 -66q-66 -54 -312 -54h-21q-32 0 -41 14q-7 9 -17 52q-28 106 -62 166
q114 -13 197 -13q92 0 92 76v723h-512zM635 1378l-283 -4q-16 0 -19 4t-3 18v171q0 16 4 19t18 3l283 -4h786l283 4q16 0 20 -4q3 -4 3 -18v-171q0 -16 -5 -19q-3 -3 -18 -3l-283 4h-786zM78 178q220 172 328 391q44 92 53 164q80 -20 198 -67q31 -14 31 -35q0 -15 -25 -39
q-14 -14 -47 -80q-119 -238 -307 -432q-32 -33 -49 -33q-16 0 -51 35q-76 69 -131 96zM1974 219q-58 -42 -127 -121q-35 -41 -46 -41q-14 0 -44 33q-231 238 -376 547q-4 9 -4 15q0 10 26 22l127 53q15 8 22 8q8 0 17 -18q150 -297 405 -498z" />
    <glyph glyph-name="uni79B8" unicode="&#xe0100;" 
d="M1045 1171q-55 -239 -160 -606q368 49 369 49q-52 104 -125 215q-6 9 -6 14q0 7 14 15l129 57q10 5 15 5q9 0 18 -13q174 -245 279 -522q3 -9 3 -13q0 -8 -16 -16l-153 -68q-9 -3 -13 -3q-8 0 -14 16q-17 47 -55 149q-389 -78 -650 -106q-59 -6 -92 -25q-21 -12 -39 -12
q-17 0 -27 31q-22 83 -41 200q72 0 183 8q82 286 158 625h-402v-975l4 -297q0 -16 -4 -19t-18 -3h-181q-15 0 -18.5 3.5t-3.5 18.5l4 320v807l-4 323q0 17 4 20t19 3l282 -4h357q12 66 16 96q22 148 22 256q141 -20 226 -43q39 -10 39 -30q0 -19 -14 -39q-24 -34 -37 -109
q-18 -90 -27 -131h461l282 4q17 0 20 -4t3 -19l-4 -338v-544l5 -326v-33q0 -113 -62 -166q-64 -57 -328 -57q-46 0 -55 9q-7 8 -15 50q-22 110 -59 166q86 -8 211 -8q51 0 70 16q18 15 18 50v1003h-588z" />
    <glyph glyph-name="uni79BE" unicode="&#xe0100;" 
d="M1982 247q-58 -63 -96 -149q-24 -47 -39 -47q-8 0 -49 20q-455 250 -690 637q1 -260 7 -584q5 -254 5 -258q0 -20 -22 -20h-183q-22 0 -22 20q0 17 3 150q8 396 9 676q-218 -369 -649 -619q-38 -20 -47 -20q-15 0 -41 49q-39 78 -96 135q445 194 716 594h-370l-262 -4
q-17 0 -20 5q-3 4 -3 20v155q0 17 4 20t19 3l262 -4h481v315q-290 -40 -502 -55q-23 -2 -33 -2q-24 0 -33 11q-7 9 -18 40q-41 104 -80 148q345 14 686 61q239 34 451 90q90 25 166 60q85 -52 169 -129q25 -25 25 -41q0 -22 -35 -25q-31 -2 -102 -18q-251 -66 -477 -105
v-350h504l262 4q16 0 19 -4t3 -19v-155q0 -18 -4 -22q-4 -3 -18 -3l-262 4h-396q156 -204 370 -365q192 -144 388 -219z" />
    <glyph glyph-name="uni7A74" unicode="&#xe0100;" 
d="M1595 1380l270 4q18 0 22 -4q3 -4 3 -18l-4 -115v-101l4 -240q0 -16 -5 -19q-4 -3 -19 -3h-170q-18 0 -22 4q-3 4 -3 18v279h-1290v-279q0 -16 -5 -19q-4 -3 -20 -3h-170q-17 0 -21 4q-3 4 -3 18l4 240v82l-4 134q0 16 5 19q4 3 20 3l270 -4h444v115q0 125 -16 198
q157 -4 225 -10q35 -3 35 -25q0 -8 -5 -23q-6 -17 -7 -22q-13 -32 -13 -118v-115h475zM1968 57q-77 -48 -144 -141q-29 -39 -40 -39q-10 0 -43 31q-412 360 -570 907q-2 9 -2 13q0 11 27 22l147 55q14 6 21 6q12 0 18 -22q123 -511 586 -832zM98 45q206 143 330 323
q107 156 174 367q32 107 35 174q142 -37 215 -67q37 -16 37 -31q0 -18 -18 -37q-21 -24 -39 -84q-150 -464 -507 -778q-36 -33 -45 -33t-43 43q-52 65 -139 123z" />
    <glyph glyph-name="uni7ACB" unicode="&#xe0100;" 
d="M378 -59l-254 -4q-20 0 -20 22v173q0 22 20 22l254 -4h719q119 300 230 715q25 106 32 196q162 -41 233 -69q25 -8 25 -29q0 -20 -20 -41q-21 -23 -39 -82q-102 -351 -235 -690h346l254 4q16 0 19 -4t3 -18v-173q0 -15 -3.5 -18.5t-18.5 -3.5l-254 4h-1291zM493 1149
l-272 -4q-16 0 -20 5q-3 4 -3 20v166q0 17 4 21q4 3 19 3l272 -4h406v158q0 128 -15 188q103 0 225 -10q33 -4 33 -23q0 -7 -12 -41q-10 -27 -10 -114v-158h438l275 4q16 0 19 -5q3 -4 3 -19v-166q0 -18 -4 -22q-4 -3 -18 -3l-275 4h-1065zM651 1030q152 -350 205 -688
q2 -10 2 -14q0 -13 -27 -21l-160 -53q-16 -6 -23 -6q-12 0 -16 20q-50 357 -192 688q-4 11 -4 15q0 9 26 18l150 53q15 6 22 6q10 0 17 -18z" />
    <glyph glyph-name="uni7AF9" unicode="&#xe0100;" 
d="M856 924q225 249 334 608q23 71 32 164q112 -17 206 -41q37 -10 37 -28t-17 -37q-21 -24 -41 -95q-36 -108 -70 -188h320l288 4q16 0 20 -4q3 -4 3 -19v-160q0 -16 -4 -19t-19 -3l-288 4v-664l6 -337q0 -81 -15 -123q-15 -41 -51 -70q-38 -33 -108 -44q-58 -9 -180 -9
q-50 0 -60 10q-8 8 -18 53q-22 95 -56 156q85 -10 177 -10q50 0 69 19q19 17 19 61v958h-199q-68 -131 -172 -268q-31 -37 -41 -37q-11 0 -47 33q-45 41 -125 86zM58 946q247 247 365 586q29 84 36 161q112 -17 207 -45q37 -10 37 -30q0 -17 -19 -35q-18 -21 -45 -94
q-31 -84 -77 -183h182l227 4q16 0 20 -4q3 -4 3 -18v-160q0 -16 -4 -19t-19 -3l-227 4h-61v-936l4 -305q0 -21 -23 -21h-180q-22 0 -22 21l4 305v936h-11q-81 -138 -186 -264q-31 -37 -41 -37q-11 0 -45 37q-66 69 -125 100z" />
    <glyph glyph-name="uni7C73" unicode="&#xe0100;" 
d="M410 813l-261 -4q-16 0 -19 4t-3 18v157q0 16 4 19t18 3l261 -4h489v459q0 150 -16 243q131 -3 225 -14q33 -3 33 -22q0 -18 -12 -56q-13 -49 -13 -147v-463h526l260 4q17 0 20 -4t3 -18v-157q0 -15 -3.5 -18.5t-19.5 -3.5l-260 4h-417q146 -195 361 -357
q188 -141 398 -233q-54 -63 -96 -154q-25 -49 -37 -49q-10 0 -49 23q-461 268 -690 627l10 -807q0 -21 -22 -21h-185q-22 0 -22 21q0 16 2 141q7 375 8 647q-236 -366 -647 -608q-32 -20 -49 -20q-15 0 -41 47q-45 84 -96 135q229 106 429 280q174 151 296 328h-385z
M1287 1151q122 151 204 325q24 50 37 107q129 -50 190 -86q29 -19 29 -33q0 -22 -22 -37q-13 -7 -48 -63q-68 -124 -176 -266q-30 -37 -41 -37q-8 0 -47 24q-72 48 -126 66zM478 1554q129 -147 239 -348q5 -11 5 -17q0 -9 -19 -22l-133 -88q-17 -10 -23 -10q-8 0 -18 16
q-83 180 -225 359q-8 10 -8 15q0 6 22 22l119 79q13 9 20 9q8 0 21 -15z" />
    <glyph glyph-name="uni7CF8" unicode="&#xe0100;" 
d="M1319 1515q98 -41 190 -104q25 -19 25 -35q0 -19 -33 -37q-23 -11 -86 -84q-231 -269 -459 -477q386 21 576 39q-62 81 -131 156q-10 11 -10 18q0 11 18 20l111 62q15 9 23 9q9 0 22 -13q175 -181 365 -477q6 -12 6 -18q0 -9 -21 -21l-129 -78q-21 -10 -25 -10
q-8 0 -16 14q-40 77 -86 154q-242 -23 -545 -43v-445l4 -276q0 -16 -4 -20q-4 -3 -18 -3h-183q-16 0 -19 4t-3 19l4 276v430q-235 -16 -571 -32q-83 -6 -107 -19q-14 -8 -31 -8q-19 0 -28 33q-15 64 -35 213q74 -6 172 -6q48 0 82 1q195 5 280 9l97 88q-201 197 -479 403
q-12 9 -12 16t16 23l96 100q12 14 21 14q7 0 20 -9q137 -105 157 -121q128 141 250 325q36 55 66 125q103 -44 188 -98q29 -17 29 -33q0 -17 -25 -33q-18 -11 -71 -71q-157 -211 -281 -340q104 -86 174 -154q187 191 303 342q73 93 113 172zM115 63q216 129 354 312
q33 43 74 121q87 -39 166 -93q27 -20 27 -38q0 -17 -29 -35q-22 -17 -57 -62q-138 -187 -324 -325q-35 -29 -47 -29q-13 0 -45 41q-46 59 -119 108zM1891 86q-65 -47 -121 -113q-32 -41 -43 -41q-14 0 -47 31q-213 179 -380 416q-7 11 -7 17q0 9 22 22l107 69q18 13 24 13
q7 0 19 -14q164 -220 426 -400z" />
    <glyph glyph-name="uni7F36" unicode="&#xe0100;" 
d="M406 715l-259 -4q-16 0 -19 4t-3 18v169q0 16 4 19t18 3l259 -4h507v315h-356q-77 -114 -153 -198q-34 -37 -48 -37q-9 0 -45 33q-56 48 -135 83q237 216 340 472q41 118 47 141q127 -30 194 -53q35 -13 35 -31q0 -16 -24 -37q-16 -13 -39 -63q-20 -44 -55 -115h815
l280 4q17 0 20 -5q3 -4 3 -20v-155q0 -17 -4 -20t-19 -3l-280 4h-357v-315h527l258 4q16 0 19 -4t3 -18v-169q0 -15 -3.5 -18.5t-18.5 -3.5l-258 4h-527v-534h408v200q0 133 -10 203q124 -7 215 -18q29 -4 29 -25q0 -13 -11 -37q-12 -25 -12 -133v-293l4 -200q0 -23 -20 -23
h-171q-17 0 -21 4q-3 4 -3 19v106h-1030v-104q0 -17 -4 -20t-19 -3h-170q-16 0 -19 4t-3 19l4 192v299q0 130 -12 211q124 -3 216 -14q27 -3 27 -25q0 -17 -10 -41q-10 -27 -10 -118v-203h403v534h-507z" />
    <glyph glyph-name="uni7F51" unicode="&#xe0100;" 
d="M1399 94q96 -10 192 -10q40 0 54 19q12 16 12 52v1272h-1266v-1173l4 -373q0 -16 -5 -20q-4 -3 -19 -3h-179q-15 0 -18.5 3.5t-3.5 19.5l4 428v864l-4 432q0 18 4 22q4 3 19 3l274 -4h1114l275 4q16 0 19 -5q3 -4 3 -20l-4 -438v-717l5 -322v-32q-4 -119 -60 -170
q-66 -53 -285 -53q-47 0 -57 10t-19 53q-15 85 -59 158zM1106 1104q73 -60 164 -144q13 89 17 129q12 136 12 202q0 43 -5 77q121 -14 187 -31q39 -8 39 -22q0 -6 -16 -39q-12 -25 -25 -156q-22 -198 -49 -326q86 -98 178 -219q10 -13 10 -18q0 -6 -12 -25l-86 -119
q-14 -18 -21 -18q-6 0 -14 12l-117 158q-80 -243 -235 -473q-25 -37 -37 -37q-15 0 -45 31q-59 54 -125 84q201 244 295 567q-102 114 -215 209q-14 10 -14 19q0 6 9 22l68 104q12 22 21 22q6 0 16 -9zM569 1106q97 -83 172 -158q16 88 25 176q9 98 9 154q0 44 -5 90
q115 -13 186 -29q39 -9 39 -22q0 -17 -12 -35q-12 -21 -29 -162q-19 -178 -57 -340q57 -66 151 -188q10 -15 10 -21q0 -7 -11 -24l-84 -119q-14 -19 -20 -19t-15 12q-67 96 -99 138q-79 -221 -215 -430q-24 -37 -36 -37t-43 29q-53 55 -125 90q182 222 276 522
q-107 120 -221 221q-12 12 -12 19q0 5 10 22l69 102q12 19 20 19q6 0 17 -10z" />
    <glyph glyph-name="uni7F8A" unicode="&#xe0101;" 
d="M412 344l-260 -4q-17 0 -20 4t-3 18v161q0 17 4 21q4 3 19 3l260 -4h485v219h-264l-283 -4q-18 0 -21 4t-3 18v154q0 16 4 19t20 3l283 -4h264v207h-383l-274 -4q-18 0 -22 4q-3 4 -3 18v157q0 16 5 19q4 3 20 3l274 -4h143l-6 12q-65 139 -152 258q-7 10 -7 15
q0 9 24 18l137 53q17 7 24 7q9 0 19 -13q85 -109 158 -258q5 -9 5 -14q0 -6 -30 -19l-135 -59h422q103 146 166 274q23 46 35 97q130 -28 204 -56q31 -10 31 -28q0 -15 -21 -29q-22 -20 -40 -51q-57 -93 -144 -207h193l274 4q16 0 20 -4q3 -4 3 -18v-157q0 -16 -4 -19
t-19 -3l-274 4h-418v-207h299l285 4q16 0 19 -4t3 -18v-154q0 -16 -4 -19t-18 -3l-285 4h-299v-219h514l262 4q16 0 20 -5q3 -4 3 -19v-161q0 -15 -3.5 -18.5t-19.5 -3.5l-262 4h-514v-164l4 -319q0 -16 -4 -20q-4 -3 -18 -3h-187q-17 0 -21 4q-3 4 -3 19l4 319v164h-485z
" />
    <glyph glyph-name="uni7FBD" unicode="&#xe0101;" 
d="M733 1415h-332l-225 -4q-18 0 -21 4q-4 4 -4 18v160q0 17 5 20q4 3 20 3l225 -4h299l230 4q16 0 19 -4t3 -19l-4 -274v-889l4 -326q0 -130 -61 -180q-63 -53 -312 -53q-51 0 -61 10q-8 8 -18 53q-22 96 -52 154q98 -10 193 -10q54 0 73 20q19 19 19 64v1253zM1640 1415
h-338l-225 -4q-21 0 -21 22v160q0 23 21 23l225 -4h303l231 4q17 0 20 -4t3 -19l-4 -274v-889l4 -326q0 -132 -59 -180q-68 -53 -322 -53q-50 0 -60 10q-9 9 -18 53q-16 86 -55 154q108 -8 201 -8q56 0 76 19q18 18 18 63v1253zM629 803q19 -99 37 -158q7 -27 7 -40
q0 -22 -40 -56q-141 -122 -340 -254q-43 -31 -53 -46q-13 -18 -31 -18t-31 20q-43 74 -92 189q60 19 139 64q216 131 404 299zM1540 858q7 -50 33 -145q10 -45 10 -56q0 -20 -35 -49q-159 -134 -340 -252q-33 -21 -55 -47q-14 -18 -29 -18q-16 0 -28 20q-59 105 -92 187
q57 20 137 65q220 132 399 295zM362 1257q125 -149 210 -313q6 -11 6 -17q0 -11 -27 -28l-111 -84q-13 -9 -21 -9q-11 0 -18 16q-95 191 -205 325q-7 10 -7 14q0 6 20 23l110 76q16 9 24 9t19 -12zM1274 1255q116 -143 194 -294q6 -12 6 -18q0 -9 -20 -21l-115 -82
q-18 -15 -24 -15q-9 0 -19 19q-88 180 -184 305q-12 12 -12 18q0 9 20 21l113 74q13 8 20 8q9 0 21 -15z" />
    <glyph glyph-name="uni8001" unicode="&#xe0100;" 
d="M1558 330q58 -38 160 -62q49 -11 49 -35q0 -10 -4 -36q-27 -189 -107 -248q-90 -70 -516 -70q-367 0 -450 43q-80 40 -80 168v375q-168 -82 -334 -154q-43 -14 -49 -14q-20 0 -45 47q-43 79 -94 127q466 155 817 373h-502l-260 -4q-16 0 -20 4q-3 5 -3 20v150q0 16 5 19
q3 3 18 3l260 -4h422v228h-215l-268 -4q-18 0 -22 4q-3 4 -3 18v145q0 18 5 22q4 3 20 3l268 -4h215v55q0 132 -14 211q149 -4 221 -12q33 -3 33 -25q0 -20 -10 -41q-17 -32 -17 -137v-51h86l268 4q17 0 20 -5q3 -4 3 -20v-138q83 99 121 149q56 73 90 153q113 -53 186 -98
q29 -19 29 -41q0 -15 -23 -27q-44 -23 -88 -77q-137 -168 -293 -312h213l258 4q21 0 21 -22v-150q0 -16 -3.5 -20t-17.5 -4l-258 4h-417q-183 -139 -408 -266v-125q306 73 555 186q69 31 117 70q79 -68 135 -135q18 -22 18 -39q0 -24 -35 -27q-28 -4 -94 -28
q-289 -126 -696 -211v-93q0 -60 45 -78q37 -18 291 -18q284 0 342 45q28 22 40 68q11 44 15 137zM1124 1260h-86v-228h115q125 104 235 224z" />
    <glyph glyph-name="uni800C" unicode="&#xe0100;" 
d="M399 1415l-258 -4q-16 0 -19 4q-3 5 -3 21v161q0 17 4 20t18 3l258 -4h1252l258 4q16 0 19 -4t3 -19v-161q0 -18 -4 -22q-4 -3 -18 -3l-258 4h-526q-30 -115 -99 -272h512l280 4q17 0 20 -5q3 -4 3 -20l-4 -293v-379l4 -354q0 -120 -59 -174q-65 -51 -250 -51
q-49 0 -58 10q-8 9 -16 55q-15 77 -51 142q65 -6 143 -6q70 0 70 59v819h-272v-715l4 -284q0 -18 -4 -22q-4 -3 -18 -3h-177q-16 0 -19 5q-3 4 -3 20l4 284v715h-238v-717l4 -287q0 -16 -4 -19t-18 -3h-175q-16 0 -19 4t-3 18l4 287v717h-254v-776l4 -293q0 -16 -4 -20
q-4 -3 -18 -3h-179q-16 0 -19 5q-3 3 -3 18l4 305v658l-4 278q0 18 4 22q4 3 18 3l281 -4h272q69 156 99 272h-488z" />
    <glyph glyph-name="uni8012" unicode="&#xe0100;" 
d="M430 570l-262 -4q-16 0 -20 4q-3 4 -3 18v148q0 16 4 19t19 3l262 -4h473v170h-311l-283 -4q-16 0 -20 4q-3 4 -3 18v148q0 16 5 19q3 3 18 3l283 -4h311v184q-177 -15 -510 -32q-21 -2 -33 -2q-24 0 -32 9q-5 7 -13 31q-28 95 -76 148q269 4 664 36q0 130 -16 236
q111 -3 225 -16q35 -4 35 -25q0 -11 -7 -27q-8 -17 -10 -24q-8 -23 -8 -121q159 20 287 47q126 26 180 60q67 -54 150 -142q22 -26 22 -45q0 -23 -33 -26q-75 -4 -112 -11q-236 -45 -494 -76v-204h342l281 4q16 0 19 -4t3 -18v-148q0 -16 -4 -19t-18 -3l-281 4h-342v-170
h504l262 4q16 0 20 -4q3 -4 3 -18v-148q0 -15 -3.5 -18.5t-19.5 -3.5l-262 4h-383q275 -269 762 -444q-70 -74 -103 -140q-23 -47 -41 -47q-11 0 -47 16q-470 220 -700 511q1 -168 7 -391q5 -171 5 -212q0 -16 -4 -19t-18 -3h-185q-16 0 -19 4t-3 18q0 28 7 249q6 192 7 349
q-222 -287 -668 -510q-36 -16 -47 -16q-19 0 -43 47q-37 74 -100 131q432 156 727 457h-350z" />
    <glyph glyph-name="uni8033" unicode="&#xe0100;" 
d="M424 1403l-262 -4q-16 0 -20 4q-3 4 -3 18v162q0 16 5 20q3 3 18 3l262 -4h1208l262 4q18 0 21 -4q4 -4 4 -19v-162q0 -16 -5 -19q-4 -3 -20 -3l-262 4h-45v-981q259 30 377 47q-17 -63 -25 -129q-1 -49 -9.5 -58t-58.5 -16q-104 -16 -284 -39l4 -364q0 -16 -5 -20
q-4 -3 -20 -3h-180q-16 0 -19 5q-3 3 -3 18l4 336q-245 -28 -381 -41q-398 -40 -692 -64q-74 -8 -102 -21q-34 -14 -43 -14q-20 0 -27 33q-29 143 -39 215q94 0 129 2q55 2 250 11v1083h-39zM1368 397v197h-688v-258q549 47 688 61zM680 791h688v208h-688v-208zM680 1196
h688v207h-688v-207z" />
    <glyph glyph-name="uni807F" unicode="&#xe0100;" 
d="M887 1721q117 -4 215 -15q33 -3 33 -22q0 -8 -12 -37q-13 -33 -13 -123h252l338 4q17 0 20 -4t3 -19l-5 -212v-74l197 4q18 0 21 -4q4 -4 4 -18v-136q0 -16 -5 -19q-4 -3 -20 -3q-4 0 -27 1q-78 2 -170 3v-74l5 -213q0 -18 -4 -22q-4 -3 -19 -3l-338 4h-252v-135h385
l281 4q16 0 19 -4t3 -18v-130q0 -15 -3.5 -18.5t-18.5 -3.5l-281 4h-385v-129h527l260 4q16 0 19 -4t3 -18v-138q0 -15 -3.5 -18.5t-18.5 -3.5l-260 4h-527l4 -272q0 -16 -4 -20q-4 -3 -18 -3h-170q-17 0 -20 4t-3 19q0 3 1 37q2 115 3 235h-491l-260 -4q-16 0 -20 4
q-3 4 -3 18v138q0 16 4 19t19 3l260 -4h491v129h-331l-279 -4q-18 0 -21 4q-4 4 -4 18v130q0 16 5 19q4 3 20 3l279 -4h331v135h-297l-278 -4q-15 0 -18 5q-3 4 -3 20v127q0 22 21 22l278 -4h297v142h-501l-258 -4q-17 0 -20 4t-3 18v136q0 16 4 19t19 3l258 -4h501v135
h-288l-283 -4q-21 0 -21 22v134q0 22 21 22l283 -4h288q-2 123 -16 197zM1518 905v142h-408v-142h408zM1518 1354h-408v-135h408v135z" />
    <glyph glyph-name="uni8089" unicode="&#xe0100;" 
d="M1368 85q96 -14 209 -14q74 0 74 72v1085h-518q162 -251 483 -350q-62 -73 -88 -142q-20 -51 -37 -51q-11 0 -47 16q-267 131 -420 369q-112 -215 -393 -381q-37 -20 -49 -20q-16 0 -41 43q-41 74 -100 123q201 83 308 187q91 88 132 206h-469v-1047l4 -315
q0 -20 -22 -20h-179q-22 0 -22 20l4 352v830l-4 352q0 18 4 22q4 3 19 3l274 -4h430l2 33q5 76 5 134q0 71 -7 120q144 -8 205 -17q39 -3 39 -22q0 -12 -12 -37q-12 -24 -17 -109q-2 -36 -10 -102h448l275 4q16 0 19 -5q3 -4 3 -20l-4 -365v-598l4 -356q-3 -122 -61 -168
q-69 -53 -305 -53q-51 0 -61 10q-8 9 -17 53q-19 101 -58 162zM445 258q388 143 463 410q30 117 30 209q145 -16 189 -23q37 -6 37 -29q0 -15 -10 -28q-14 -20 -29 -95l-2 -10q77 -135 203 -225q107 -77 276 -141q-59 -59 -96 -144q-20 -49 -35 -49q-8 0 -49 20
q-234 125 -377 332q-119 -221 -397 -370q-42 -21 -52 -21q-15 0 -41 43q-44 74 -110 121z" />
    <glyph glyph-name="uni81E3" unicode="&#xe0100;" 
d="M436 -164h-174q-15 0 -18.5 3.5t-3.5 19.5l4 430v882l-4 428q0 17 4 20t19 3l278 -4h1048l273 4q16 0 19 -4t3 -19v-160q0 -16 -4 -19t-18 -3l-273 4h-423v-291h233l335 4q17 0 20 -4t3 -18l-4 -195v-241l4 -195q0 -15 -3.5 -18.5t-19.5 -3.5l-335 4h-233v-311h440l282 4
q16 0 20 -4q3 -4 3 -18v-160q0 -16 -3.5 -19.5t-19.5 -3.5l-282 4h-1145v-96q0 -16 -4 -20q-5 -3 -21 -3zM1538 653v289h-1077v-289h1077zM461 152h492v311h-492v-311zM461 1421v-291h492v291h-492z" />
    <glyph glyph-name="uni81EA" unicode="&#xe0100;" 
d="M538 -148h-178q-15 0 -18.5 3.5t-3.5 19.5l4 668v378l-4 509q0 16 4 19t19 3l284 -4h133q35 70 76 192q12 33 22 97q84 -8 219 -31q29 -6 29 -27q0 -12 -16 -28q-23 -27 -31 -49q-37 -89 -71 -154h399l285 4q16 0 19 -4t3 -18l-4 -453v-432l4 -666q0 -16 -4 -20
q-4 -3 -18 -3h-182q-17 0 -20 5q-3 3 -3 18v92h-924v-96q0 -16 -4 -20q-4 -3 -19 -3zM561 168h924v246h-924v-246zM561 607h924v228h-924v-228zM561 1251v-223h924v223h-924z" />
    <glyph glyph-name="uni81F3" unicode="&#xe0100;" 
d="M426 1422l-262 -4q-16 0 -19 4t-3 18v149q0 18 4 22q4 3 18 3l262 -4h1196l265 4q16 0 19 -5q3 -4 3 -20v-149q0 -16 -4 -19t-18 -3l-265 4h-667q-70 -165 -174 -358q342 16 612 43q-70 69 -162 151q-11 10 -11 16q0 9 19 19l107 66q15 10 24 10q11 0 21 -10
q266 -211 438 -424q9 -12 9 -18q0 -7 -21 -23l-121 -91q-19 -14 -27 -14q-7 0 -16 12q-53 72 -115 146q-400 -56 -1122 -94q-60 -3 -98 -17q-29 -12 -43 -12q-21 0 -29 35q-11 44 -35 198q69 -5 143 -5q38 0 74 1l119 2q91 153 182 367h-303zM395 -63l-258 -4q-16 0 -19 4
t-3 18v158q0 18 4 22q4 3 18 3l258 -4h508v263h-297l-283 -4q-16 0 -19 4t-3 18v154q0 18 4 22q4 3 18 3l283 -4h297q0 106 -14 235q131 -3 222 -14q29 -3 29 -22q0 -15 -10 -45q-10 -34 -10 -154h317l283 4q15 0 18 -4q2 -5 2 -21v-154q0 -22 -20 -22l-283 4h-317v-263h534
l258 4q17 0 20 -5q3 -4 3 -20v-158q0 -15 -3.5 -18.5t-19.5 -3.5l-258 4h-1259z" />
    <glyph glyph-name="uni81FC" unicode="&#xe0100;" 
d="M1820 260l4 -359q0 -16 -4 -19q-5 -3 -20 -3h-174q-17 0 -20 4t-3 18v111h-1147v-115q0 -16 -4 -19t-19 -3h-176q-15 0 -18.5 3.5t-3.5 18.5l4 376v905q0 179 -12 295q65 -11 165 -41q223 85 371 182q59 38 97 78q82 -54 155 -127q23 -19 23 -39q0 -29 -33 -33
q-25 -5 -102 -47q-192 -110 -447 -199v-393h235l224 4q20 0 20 -22v-160q0 -18 -4 -22q-3 -3 -16 -3l-224 4h-235v-448h1147v448h-242l-233 -4q-16 0 -20 5q-3 4 -3 20v160q0 16 5 19q3 3 18 3l233 -4h242v426h-250l-237 -4q-23 0 -23 20v163q0 16 4 19t19 3l237 -4h232
l214 4q18 0 22 -4q3 -4 3 -19l-4 -358v-840z" />
    <glyph glyph-name="uni820C" unicode="&#xe0100;" 
d="M389 905l-256 -4q-20 0 -20 23v157q0 23 20 23l256 -4h515v278q-210 -23 -500 -45q-20 -2 -26 -2q-20 0 -28 14q-5 8 -18 49q-19 62 -67 134q639 17 1093 131q113 28 166 53q76 -57 155 -144q21 -23 21 -40q0 -26 -52 -29q-18 0 -114 -19q-168 -41 -411 -75v-305h542
l254 4q16 0 19 -4t3 -19v-157q0 -17 -4 -20t-18 -3l-254 4h-542v-258h239l280 4q18 0 21 -4q4 -4 4 -19l-4 -209v-191l4 -353q0 -16 -5 -19q-4 -3 -20 -3h-176q-16 0 -19 4t-3 18v72h-833v-82q0 -16 -5 -19q-3 -3 -18 -3h-176q-16 0 -19 4t-3 18l4 355v169l-4 239q0 17 4 20
t18 3l281 -4h211v258h-515zM611 454v-314h833v314h-833z" />
    <glyph glyph-name="uni821B" unicode="&#xe0100;" 
d="M1078 974q117 -9 193 -22q45 -8 45 -29q0 -15 -14 -37q-16 -20 -27 -94l-37 -248h264v545h-180l-240 -4q-18 0 -21 4t-3 19v155q0 15 4 18t20 3l240 -4h180v110q0 163 -16 297q118 -3 221 -12q31 -3 31 -23q0 -5 -10 -40q-13 -32 -13 -218v-114l205 4q22 0 22 -21v-155
q0 -17 -4 -20t-18 -3q-4 0 -27 1q-81 2 -178 3v-545l229 4q17 0 20 -4t3 -18v-150q0 -16 -3.5 -20t-19.5 -4q-3 0 -30 1q-88 2 -199 3v-139l4 -357q0 -20 -22 -20h-177q-22 0 -22 20l4 355v141h-299l-25 -127q-4 -23 -24 -23h-10l-150 13q-32 2 -32 18q0 3 1 10
q80 329 109 586q7 62 7 108q0 18 -1 33zM510 887q81 -74 148 -158q86 207 129 465h-244q-113 -277 -295 -514q-26 -33 -39 -33q-10 0 -32 35q-40 66 -109 119q273 334 369 743q19 76 22 154q111 -16 209 -43q29 -12 29 -29q0 -20 -21 -41q-10 -14 -37 -106l-30 -99h188
q31 0 47 9q26 10 37 10q27 0 78 -53q61 -62 61 -82q0 -21 -12 -37q-19 -25 -29 -80q-80 -435 -259 -738q-158 -266 -429 -495q-35 -29 -45 -29q-12 0 -41 43q-51 67 -106 107q300 221 463 500q-81 105 -173 192q-14 14 -14 21q0 9 12 24l80 111q10 16 23 16q8 0 20 -12z" />
    <glyph glyph-name="uni821F" unicode="&#xe0100;" 
d="M995 1243q87 -70 206 -225q8 -11 8 -17q0 -9 -21 -22l-129 -92q-13 -10 -25 -10q-11 0 -20 14q-89 152 -184 239q-12 13 -12 19q0 9 20 20l108 74q16 10 27 10q12 0 22 -10zM1150 69q100 -8 183 -8q72 3 72 61v516h-294v-295l4 -221q0 -17 -3.5 -21t-19.5 -4h-166
q-17 0 -21 5q-3 4 -3 20l4 221v295h-250q-23 -286 -102 -474q-65 -156 -189 -290q-35 -35 -45 -35t-45 35q-51 53 -137 98q159 140 225 294q61 143 78 372h-54l-254 -4q-20 0 -20 22v157q0 22 20 22l254 -4h62q2 37 2 117v240l-4 275q0 17 4 21q4 3 18 3l273 -4h76
q24 47 61 137q25 69 29 115q160 -19 215 -33q25 -7 25 -24t-16 -33q-20 -16 -31 -41q-36 -82 -58 -121h282l272 4q17 0 20 -5q3 -4 3 -19l-4 -275v-357h53l254 4q21 0 21 -22v-157q0 -22 -21 -22l-254 4h-53v-276l4 -277q0 -127 -68 -180q-50 -41 -280 -47q-51 0 -60 10
q-8 8 -15 53q-11 71 -47 148zM1405 1293h-739v-349q0 -78 -2 -113h741v462z" />
    <glyph glyph-name="uni826E" unicode="&#xe0100;" 
d="M1985 60q-56 -63 -90 -145q-24 -55 -44 -55q-10 0 -47 10q-710 195 -950 825h-245v-555q227 46 460 111q-8 -52 -8 -125q0 -53 -9 -63q-8 -9 -52 -19q-326 -94 -709 -170q-50 -9 -73 -25q-21 -12 -31 -12q-19 0 -29 29q-18 52 -49 198q121 9 223 25l58 8v1124l-4 350
q0 16 4 19t18 3l305 -4h639l307 4q18 0 21 -4q4 -4 4 -18l-4 -231v-398l4 -228q0 -17 -5 -20q-4 -3 -20 -3l-307 4h-276q70 -160 184 -277q183 108 270 183q40 36 72 80q87 -46 168 -105q25 -18 25 -33t-27 -24q-35 -13 -76 -41q-138 -93 -295 -178q226 -166 588 -240z
M1465 879v176h-856v-176h856zM1465 1403h-856v-168h856v168z" />
    <glyph glyph-name="uni8272" unicode="&#xe0100;" 
d="M70 1085q339 185 544 494q36 57 66 135q99 -16 199 -41q29 -11 29 -33q0 -16 -23 -32q-18 -14 -51 -68l-6 -8h393q37 0 49 6q19 6 29 6q18 0 82 -51q57 -50 57 -72q0 -20 -33 -37q-18 -9 -63 -63q-96 -116 -156 -178h242l284 4q17 0 20 -4t3 -19l-4 -175v-247l4 -179
q0 -16 -3.5 -19.5t-19.5 -3.5l-284 4h-871v-242q0 -81 19 -114q18 -31 65 -43q85 -23 445 -23q287 0 407 14q104 13 146 43q43 33 56 99q7 37 14 159q68 -39 159 -59q40 -9 50 -16q10 -8 10 -27q0 -10 -3 -37q-11 -129 -47 -200q-30 -62 -88 -99q-63 -46 -242 -63
q-156 -15 -452 -15q-503 0 -623 57q-129 53 -129 283v797q-37 -28 -119 -81q-38 -25 -45 -25q-14 0 -33 49q-28 75 -77 124zM1516 688v273h-385v-273h385zM557 688h365v273h-365v-273zM500 1143h440q92 98 179 219h-410q-94 -119 -209 -219z" />
    <glyph glyph-name="uni8278" unicode="&#xe0100;" 
d="M128 -6q252 149 307 418l8 45h-98v-60q0 -16 -5 -19q-3 -3 -18 -3h-147q-16 0 -19 4t-3 18l4 291v526q0 93 -13 162q128 -4 195 -12q29 -3 29 -21q0 -3 -13 -40q-10 -24 -10 -93v-567h115q4 102 4 332v395q0 183 -17 326q109 -3 203 -13q33 -3 33 -18q0 -6 -12 -47
q-10 -41 -10 -250v-395q0 -225 -7 -330h125v569q0 93 -13 162q121 -4 192 -12q27 -3 27 -21q0 -9 -10 -34q-10 -24 -10 -97v-532l4 -301q0 -18 -5 -22q-3 -3 -18 -3h-143q-17 0 -21 5q-3 4 -3 20v80h-139q-7 -69 -14 -107q-49 -264 -279 -460q-30 -27 -43 -27q-12 0 -41 35
q-50 62 -135 96zM1378 1698q100 -3 208 -12q31 -4 31 -23q0 -6 -11 -41q-14 -47 -14 -229v-750h124v569q0 93 -13 162q125 -4 192 -12q29 -3 29 -21q0 -5 -12 -36q-8 -20 -8 -95v-526l4 -301q0 -16 -4 -19.5t-21 -3.5h-143q-18 0 -21 5q-3 3 -3 18v74h-124v-226l4 -350
q0 -15 -4 -18q-4 -2 -19 -2h-158q-18 0 -21 3t-3 17l4 348v228h-120v-80q0 -16 -3.5 -19.5t-19.5 -3.5h-145q-16 0 -19 5q-3 3 -3 18l4 297v540q0 93 -13 162q106 -4 192 -12q29 -3 29 -21q0 -3 -12 -40q-10 -25 -10 -93v-567h120v746q0 201 -17 309z" />
    <glyph glyph-name="uni864D" unicode="&#xe0100;" 
d="M848 752v22q0 126 -16 221q137 -7 213 -20q39 -7 39 -29q0 -7 -15 -41q-14 -31 -14 -102v-25l401 49q170 23 283 41q6 1 10 1q10 0 13 -21l16 -135q1 -9 1 -10q0 -13 -21 -15q-67 -7 -277 -35l-426 -53v-92q0 -68 55 -87q45 -14 209 -14q194 0 244 37q48 38 57 172
q72 -36 158 -61q32 -8 40 -15q10 -8 10 -25q0 -10 -3 -30q-25 -141 -119 -207q-54 -35 -141 -47q-82 -12 -244 -12q-265 0 -362 39q-58 26 -82 66q-29 48 -29 135v114q-181 -24 -274 -38q-9 -2 -12 -2q-9 0 -13 22l-20 135q-2 9 -2 14q0 9 20 11q116 11 279 35zM1498 938
q71 50 129 113h-1131v-145q0 -351 -47 -557q-49 -240 -190 -436q-24 -33 -37 -33q-11 0 -39 37q-63 79 -121 122q134 155 186 394q41 171 41 518l-4 261q0 18 4 22q4 3 21 3l307 -4h250v315q0 109 -10 178q132 -3 204 -12q37 -3 37 -20q0 -11 -12 -39q-10 -27 -10 -113h356
l258 4q21 0 21 -22v-142q0 -17 -4 -21q-4 -3 -17 -3l-258 4h-356v-129h622q25 0 37 6q21 10 27 10q23 0 86 -53q66 -63 66 -88q0 -15 -17 -28q-23 -19 -41 -41q-62 -78 -135 -145q-31 -29 -55 -29q-16 0 -45 16q-56 33 -123 57z" />
    <glyph glyph-name="uni866B" unicode="&#xe0100;" 
d="M1567 469q191 -205 360 -481q7 -12 7 -18q0 -8 -23 -23l-127 -76q-21 -10 -27 -10q-8 0 -14 12q-81 141 -115 193q-699 -93 -1237 -133q-137 -11 -158 -23q-18 -12 -34 -12q-22 0 -31 35q-27 108 -41 209q58 -4 115 -4q48 0 161 4q191 6 506 32v404h-397v-84
q0 -21 -23 -21h-170q-22 0 -22 21l4 274v316l-4 213q0 16 4 19t19 3l298 -4h291v125q0 164 -16 262q124 -3 225 -12q31 -4 31 -23q0 -10 -13 -43q-10 -31 -10 -180v-129h303l303 4q21 0 21 -22l-4 -199v-301l4 -268q0 -23 -21 -23h-172q-15 0 -18 4q-2 4 -2 19v49h-414v-385
q193 18 385 41q-62 83 -115 143q-10 12 -10 17q0 8 25 20l113 57q17 9 24 9q9 0 19 -11zM1540 1131h-414v-369h414v369zM512 1131v-369h397v369h-397z" />
    <glyph glyph-name="uni8840" unicode="&#xe0100;" 
d="M362 -31l-250 -4q-20 0 -20 23v159q0 18 4 22q3 3 16 3l164 -4v843l-4 307q0 17 4 20t18 3l281 -4h170q55 99 111 238q25 71 36 139q125 -14 223 -43q23 -7 23 -27q0 -14 -14 -33q-25 -28 -37 -57q-60 -129 -106 -217h489l280 4q17 0 20 -4t3 -19l-4 -307v-843l166 4
q16 0 19 -5q3 -4 3 -20v-159q0 -16 -3.5 -19.5t-18.5 -3.5l-250 4h-1323zM1550 1144h-215v-976h215v976zM913 168h213v976h-213v-976zM495 168h207v976h-207v-976z" />
    <glyph glyph-name="uni884C" unicode="&#xe0100;" 
d="M1085 891l-276 -4q-16 0 -20 4q-3 4 -3 18v163q0 16 5 19q3 3 18 3l276 -4h586l272 4q17 0 20 -4t3 -18v-163q0 -16 -4 -19t-19 -3l-272 4h-43v-387l6 -387q3 -146 -70 -205q-34 -30 -113 -40q-64 -7 -210 -9q-52 0 -61 9q-9 8 -19 54q-26 105 -61 158q110 -8 221 -8
q55 0 74 16q16 14 16 49v750h-326zM567 1245q95 -54 154 -100q25 -22 25 -37q0 -12 -14 -23q-26 -16 -44 -47q-60 -88 -94 -133v-790l4 -252q0 -16 -4 -20q-4 -3 -19 -3h-174q-16 0 -19 4t-3 19l4 252v301q0 10 6 256q-87 -84 -158 -141q-33 -27 -43 -27q-14 0 -28 43
q-33 94 -74 145q257 193 426 447q31 51 55 106zM1167 1396l-252 -4q-16 0 -19 4t-3 18v165q0 16 4 19t18 3l252 -4h426l254 4q18 0 22 -4q3 -4 3 -18v-165q0 -16 -5 -19q-4 -3 -20 -3l-254 4h-426zM561 1718q94 -46 168 -100q29 -23 29 -37q0 -16 -31 -33q-22 -16 -55 -57
q-167 -198 -396 -351q-29 -20 -45 -20q-15 0 -39 47q-34 70 -92 127q252 151 402 330q35 46 59 94z" />
    <glyph glyph-name="uni8863" unicode="&#xe0100;" 
d="M63 573q481 219 715 598h-363l-260 -4q-16 0 -19 4t-3 18v163q0 16 4 19t18 3l260 -4h488v125q0 118 -15 192q112 -3 219 -12q31 -3 31 -22q0 -11 -12 -39q-8 -25 -8 -119v-125h522l260 4q16 0 19 -4t3 -18v-163q0 -16 -4 -19t-18 -3l-260 4h-418q43 -234 125 -416
q178 146 248 226q31 33 67 90q87 -61 154 -125q21 -17 21 -33q0 -22 -25 -29q-30 -10 -67 -45q-122 -115 -308 -250q183 -281 537 -469q-64 -67 -105 -151q-24 -49 -37 -49q-6 0 -45 25q-346 223 -538 558q-162 281 -228 666q-110 -186 -231 -324v-645q269 62 481 131
q-10 -46 -10 -139q0 -53 -10 -63q-8 -10 -54 -23q-416 -119 -741 -192q-51 -13 -71 -27q-22 -14 -35 -14q-22 0 -31 27q-19 58 -53 204q106 11 217 33l90 18v482q-147 -120 -320 -218q-40 -20 -47 -20q-14 0 -41 45q-39 73 -102 129z" />
    <glyph glyph-name="uni897E" unicode="&#xe0100;" 
d="M443 885v-502l4 -416q0 -16 -4 -19t-19 -3h-180q-16 0 -19 4t-3 18l4 420v316l-4 354q0 20 22 20l278 -4h160v305h-299l-254 -4q-20 0 -20 22v163q0 22 20 22l254 -4h1282l256 4q20 0 20 -22v-163q0 -22 -20 -22l-256 4h-299v-305h164l276 4q18 0 21 -4q4 -3 4 -16
l-4 -320v-346l4 -417q0 -16 -4 -19.5t-21 -3.5h-178q-16 0 -19 4t-3 19l4 407v504h-244v-357l4 -272q0 -15 -4 -18.5t-21 -3.5h-166q-16 0 -19 4t-3 18v80h-266v-94q0 -16 -3.5 -19.5t-19.5 -3.5h-168q-16 0 -19 5q-3 3 -3 18l4 276v367h-239zM1157 516v369h-266v-369h266z
M891 1073h266v305h-266v-305z" />
    <glyph glyph-name="uni898B" unicode="&#xe0100;" 
d="M1745 321q66 -43 149 -71q33 -12 40 -18q8 -7 8 -21q0 -7 -3 -31q-9 -111 -34 -164q-20 -44 -62 -74q-78 -61 -342 -61q-233 0 -308 29q-84 36 -84 145v424h-185q-89 -518 -629 -631q-30 -6 -43 -6q-21 0 -47 51q-42 81 -100 133q532 66 594 453h-4l-277 -4q-17 0 -21 4
q-3 4 -3 19l4 249v613l-4 254q0 16 4 19q5 3 20 3l281 -4h660l279 4q17 0 20 -4t3 -18l-4 -254v-613l4 -249q0 -16 -3.5 -19.5t-19.5 -3.5l-279 4h-37v-324q0 -59 37 -67q33 -10 159 -10q140 0 176 27q48 36 51 216zM1444 655v152h-835v-152h835zM1444 1446h-835v-150h835
v150zM609 979h835v145h-835v-145z" />
    <glyph glyph-name="uni89D2" unicode="&#xe0101;" 
d="M1225 84q145 -12 234 -12q56 0 76 18q18 18 18 61v201h-1014q-58 -257 -225 -465q-30 -37 -41 -37q-12 0 -45 33q-61 64 -137 100q171 165 233 363q54 171 54 448v275q-64 -48 -127 -89q-30 -20 -45 -20t-33 47q-30 76 -80 129q327 167 524 463q35 54 60 129
q104 -17 198 -41q31 -11 31 -32q0 -22 -25 -37q-21 -12 -59 -70h383q29 0 45 6q19 8 30 8q21 0 84 -53q56 -50 56 -72q0 -17 -31 -32q-26 -14 -66 -64q-65 -85 -104 -131h235l285 4q16 0 20 -4q3 -4 3 -18l-4 -226v-591l4 -291q0 -113 -66 -164q-65 -53 -340 -53
q-46 0 -56 10q-10 9 -20 53q-17 81 -55 154zM1147 520h406v178h-406v-178zM1553 1040h-406v-174h406v174zM548 1210h430q54 70 118 170h-391q-71 -89 -157 -170zM570 520h379v178h-367q-3 -95 -12 -178zM584 866h365v174h-365v-174z" />
    <glyph glyph-name="uni8A00" unicode="&#xe0100;" 
d="M566 -160h-168q-18 0 -22 4q-3 4 -3 18l4 293v115l-4 176q0 18 5 22q4 3 20 3l282 -4h690l285 4q17 0 20 -5q3 -4 3 -20l-5 -149v-135l5 -289q0 -17 -4 -20t-19 -3h-170q-18 0 -21 4q-4 4 -4 19v59h-870v-70q0 -16 -4 -19q-5 -3 -20 -3zM590 293v-187h870v187h-870z
M396 1157l-256 -4q-17 0 -20 4t-3 18v156q0 17 4 20t19 3l256 -4h1263l256 4q16 0 20 -4q3 -4 3 -19v-156q0 -16 -5 -19q-3 -3 -18 -3l-256 4h-1263zM686 1462l-280 -4q-16 0 -20 4q-3 4 -3 18v140q0 17 4 21q4 3 19 3l280 -4h682l281 4q16 0 19 -5q3 -4 3 -19v-140
q0 -16 -4 -19t-18 -3l-281 4h-682zM715 868l-276 -4q-17 0 -20 4t-3 18v138q0 20 23 20l276 -2h625l276 2q18 0 22 -4q3 -3 3 -16v-138q0 -16 -5 -19q-4 -3 -20 -3l-276 4h-625zM715 582l-276 -4q-17 0 -20 4t-3 18v136q0 16 4 19t19 3l276 -4h625l276 4q18 0 22 -4
q3 -4 3 -18v-136q0 -15 -4 -18.5t-21 -3.5l-276 4h-625z" />
    <glyph glyph-name="uni8C37" unicode="&#xe0100;" 
d="M2003 647q-50 -50 -96 -160q-23 -49 -37 -49q-12 0 -49 19q-109 50 -213 108v-334l4 -354q0 -16 -5 -20q-4 -3 -19 -3h-175q-16 0 -19 5q-3 3 -3 18v84h-721v-96q0 -21 -22 -21h-175q-17 0 -21 4q-3 4 -3 17l4 360v168q0 123 -2 160q-95 -60 -188 -109q-37 -18 -50 -18
q-14 0 -41 47q-53 94 -102 131q251 100 463 267q186 146 313 321q53 70 82 147q121 -19 209 -47q29 -10 29 -27t-19 -33l-10 -8q342 -415 866 -577zM670 467v-318h721v318h-721zM600 655h863q-271 178 -447 408q-160 -217 -416 -408zM1901 1288q-61 -55 -109 -137
q-29 -47 -43 -47q-13 0 -45 20q-312 182 -514 438q-8 10 -8 16q0 8 23 21l116 82q17 10 25 10q6 0 18 -12q120 -139 256 -234q116 -81 281 -157zM660 1689q79 -36 176 -104q25 -17 25 -35t-31 -35q-21 -12 -55 -49q-164 -205 -408 -358q-35 -23 -47 -23q-17 0 -45 45
q-52 79 -111 125q234 114 410 309q55 66 86 125z" />
    <glyph glyph-name="uni8C46" unicode="&#xe0100;" 
d="M695 1229h661l280 4q17 0 20 -4t3 -18l-4 -181v-274l4 -180q0 -16 -3.5 -19.5t-19.5 -3.5l-280 4h-661l-281 -4q-16 0 -19 4t-3 19l4 180v274l-4 181q0 16 4 19t18 3zM1438 752v282h-827v-282h827zM392 -63l-256 -4q-17 0 -20 4t-3 18v169q0 16 4 19t19 3l256 -4h757
q51 97 113 246q26 66 37 135q112 -25 210 -55q29 -10 29 -27q0 -16 -16 -33q-26 -22 -41 -63q-55 -117 -102 -203h282l256 4q16 0 20 -4q3 -4 3 -18v-169q0 -15 -3.5 -18.5t-19.5 -3.5l-256 4h-1269zM449 1407l-266 -4q-17 0 -20 4t-3 18v168q0 17 4 20t19 3l266 -4h1153
l266 4q16 0 20 -4q3 -4 3 -19v-168q0 -16 -5 -19q-3 -3 -18 -3l-266 4h-1153zM533 444q-5 11 -5 15q0 9 23 16l144 43q12 4 18 4q8 0 18 -16q73 -112 124 -264q2 -9 2 -14q0 -13 -27 -21l-146 -45q-17 -6 -24 -6q-11 0 -17 20q-40 137 -110 268z" />
    <glyph glyph-name="uni8C55" unicode="&#xe0100;" 
d="M119 199q484 152 821 448q-24 87 -57 156q-232 -191 -576 -324q-43 -14 -49 -14q-15 0 -41 49q-41 77 -88 117q387 114 664 330q-43 65 -92 121q-161 -105 -379 -187q-34 -12 -47 -12t-22 14q-2 2 -21 39q-42 80 -88 115q417 111 645 336h-334l-266 -4q-17 0 -20 4t-3 18
v152q0 16 4 19t19 3l266 -4h1143l266 4q16 0 19 -4t3 -18v-152q0 -16 -4 -19t-18 -3l-266 4h-312q41 -234 123 -445q92 86 176 199q40 54 70 111q102 -57 159 -109q29 -26 29 -41q0 -17 -31 -33q-28 -15 -86 -81q-129 -139 -233 -230q187 -363 471 -557q-66 -51 -127 -131
q-29 -41 -43 -41q-8 0 -43 29q-269 223 -456 633q-153 336 -205 696h-41q-84 -105 -195 -195q342 -372 342 -885q0 -258 -90 -353q-75 -80 -252 -87q-59 0 -98 2q-45 5 -54 12q-9 8 -18 43q-21 96 -57 156q122 -13 183 -13q14 0 24 1q84 1 115 50q34 55 34 193q0 61 -6 121
q-248 -218 -678 -393q-39 -14 -47 -14q-17 0 -43 49q-37 72 -90 125z" />
    <glyph glyph-name="uni8C78" unicode="&#xe0100;" 
d="M272 162q307 59 569 168q253 104 420 237q-14 46 -41 103q-303 -197 -776 -305q-35 -8 -46 -8q-16 0 -25 14q-6 9 -19 43q-40 93 -76 129q540 91 848 286q-40 53 -68 82q-263 -108 -583 -172q-31 -6 -42 -6q-23 0 -44 51q-38 89 -82 134q207 24 385 73q-62 100 -125 172
q-10 11 -10 19q0 10 20 20l111 55q12 7 20 7q10 0 23 -14q81 -88 145 -203q106 39 187 75q-48 83 -107 148q-14 14 -14 18q0 7 20 19l113 55q13 7 21 7t20 -13q90 -104 117 -146q87 52 147 101q69 53 94 94q64 -42 154 -117q20 -18 20 -35t-27 -26q-35 -13 -81 -45
q-153 -111 -312 -191q283 -288 283 -702q0 -251 -90 -352q-76 -86 -238 -86q-84 0 -127 4q-47 3 -56 12t-17 49q-17 97 -52 156q129 -18 232 -18q76 0 104 61q29 64 29 225v22q-341 -248 -844 -381q-34 -9 -45 -9q-20 0 -45 54q-51 100 -90 136zM1366 1714q69 -49 137 -121
q20 -20 20 -34q0 -19 -33 -25q-30 -6 -88 -31q-363 -158 -903 -227q-30 -4 -40 -4q-27 0 -50 47q-44 89 -94 141q582 34 934 187q63 28 117 67z" />
    <glyph glyph-name="uni8C9D" unicode="&#xe0100;" 
d="M1372 1616l283 4q16 0 19 -4t3 -19l-4 -284v-711l4 -284q0 -16 -3.5 -19.5t-18.5 -3.5l-283 4h-684l-283 -4q-16 0 -19 4t-3 19l4 284v711l-4 284q0 17 4 20t18 3l283 -4h684zM1456 496v194h-852v-194h852zM604 874h852v181h-852v-181zM604 1417v-178h852v178h-852z
M686 279q93 -42 168 -93q27 -18 27 -35q0 -20 -20 -26q-27 -8 -93 -49q-190 -132 -461 -218q-37 -10 -47 -10q-18 0 -43 49q-47 92 -100 136q134 26 277 80q125 47 200 94q55 34 92 72zM1932 43q-54 -48 -101 -138q-29 -52 -49 -52q-10 0 -45 9q-343 106 -547 277
q-11 9 -11 14t21 21l115 84q16 13 25 13q7 0 20 -9q230 -160 572 -219z" />
    <glyph glyph-name="uni8D64" unicode="&#xe0100;" 
d="M236 -7q291 129 388 324q86 172 91 522h-318l-258 -4q-17 0 -21 5q-3 4 -3 19v154q0 17 4 20t20 3l258 -4h496v228h-283l-282 -4q-16 0 -20 4q-3 4 -3 18v154q0 16 4 19t19 3l282 -4h283v20q0 158 -16 248q133 -3 226 -14q29 -4 29 -21q0 -16 -10 -41q-12 -39 -12 -161
v-31h311l283 4q16 0 18 -4q2 -3 2 -18v-154q0 -16 -3 -19t-17 -3l-283 4h-311v-228h522l260 4q16 0 20 -4q3 -4 3 -19v-154q0 -17 -4 -21q-4 -3 -19 -3l-260 4h-307v-524l4 -231q0 -130 -72 -178q-62 -43 -284 -45q-19 -1 -24 -1q-30 0 -39 13q-7 10 -17 51q-22 91 -59 153
q120 -12 206 -12q76 0 76 72v702h-192q-5 -433 -126 -650q-103 -185 -354 -333q-35 -21 -49 -21t-47 47q-51 71 -112 111zM1927 272q-76 -40 -133 -94q-36 -33 -45 -33q-8 0 -39 41q-161 219 -250 469q-4 9 -4 14q0 11 28 21l123 47q15 6 21 6q9 0 14 -16q111 -273 285 -455
zM102 301q139 130 217 305q40 86 49 142q99 -28 176 -62q25 -10 25 -29q0 -16 -21 -36q-18 -19 -34 -62q-75 -179 -195 -319q-30 -39 -43 -39q-12 0 -49 31q-51 40 -125 69z" />
    <glyph glyph-name="uni8D70" unicode="&#xe0100;" 
d="M399 836l-258 -4q-16 0 -19 4t-3 18v152q0 16 4 19t18 3l258 -4h502v228h-303l-283 -4q-20 0 -20 22v152q0 22 20 22l283 -4h303v23q0 158 -14 249q133 -3 225 -14q31 -3 31 -22q0 -9 -12 -41q-13 -30 -13 -160v-35h325l282 4q16 0 20 -4q3 -4 3 -18v-152q0 -16 -5 -19
q-3 -3 -18 -3l-282 4h-325v-228h527l258 4q16 0 20 -4q3 -4 3 -18v-152q0 -16 -4 -19t-19 -3l-258 4h-522v-242h285l248 4q17 0 21 -5q3 -4 3 -19v-150q0 -15 -4 -18.5t-20 -3.5l-248 4h-285v-307q116 -14 303 -14q241 0 529 32q-32 -61 -43 -153q-9 -51 -19 -60
q-10 -7 -55 -10q-160 -14 -400 -14q-285 0 -450 37q-152 35 -261 112q-132 93 -205 197q-86 -191 -229 -334q-33 -33 -45 -33q-11 0 -43 35q-57 60 -127 104q276 240 350 604q15 65 18 144q101 -16 189 -39q43 -11 43 -29q0 -16 -19 -35q-15 -17 -30 -80q-12 -58 -35 -143
q71 -117 198 -206q60 -42 120 -64v686h-513z" />
    <glyph glyph-name="uni8DB3" unicode="&#xe0100;" 
d="M82 -10q251 245 323 614q23 110 23 173q115 -15 197 -37q39 -9 39 -29q0 -17 -14 -35q-22 -25 -36 -90q-16 -76 -26 -117q94 -177 246 -268q48 -31 94 -48v751h-242l-282 -4q-17 0 -20 5q-3 4 -3 19l4 188v301l-4 188q0 18 4 22q4 3 19 3l282 -4h692l282 4q18 0 22 -5
q3 -4 3 -20l-4 -188v-301l4 -188q0 -17 -5 -21q-4 -3 -20 -3l-282 4h-233v-275h311l307 4q16 0 19 -4t3 -18v-161q0 -15 -3.5 -18.5t-18.5 -3.5l-307 4h-311v-332q112 -16 298 -16q253 0 527 35q-23 -58 -41 -154q-8 -51 -19 -59q-10 -8 -57 -11q-197 -18 -397 -18
q-277 0 -450 39q-150 34 -256 104q-129 87 -234 238q-83 -202 -217 -362q-33 -39 -45 -39q-13 0 -45 35q-54 56 -127 98zM1466 1094v329h-866v-329h866z" />
    <glyph glyph-name="uni8EAB" unicode="&#xe0100;" 
d="M1071 66q92 -11 227 -11q74 0 74 74v272q-434 -310 -1069 -512q-37 -10 -49 -10q-23 0 -45 51q-33 75 -86 121q650 170 1075 443q-394 -55 -864 -94q-47 -3 -74 -19q-20 -12 -35 -12q-18 0 -28 31q-21 75 -35 184q101 0 215 6q29 0 90 4v651l-4 243q0 17 4 20t18 3
l271 -4h39q26 46 53 111q20 52 29 116q134 -12 218 -30q29 -7 29 -29q0 -14 -18 -29q-22 -17 -33 -41q-34 -72 -49 -98h264l271 4q16 0 19 -4t3 -19l-4 -272v-411q70 73 131 156q47 57 86 132q91 -72 129 -112q27 -30 27 -43q0 -23 -25 -33q-33 -15 -82 -71
q-117 -141 -266 -271v-209l6 -272q0 -123 -68 -172q-43 -30 -123 -40q-62 -8 -192 -9q-19 -1 -24 -1q-29 0 -37 13q-6 9 -15 49q-18 74 -53 144zM1372 1339h-702v-127h702v127zM670 926h702v126h-702v-126zM1372 678v88h-702v-158q304 21 702 70z" />
    <glyph glyph-name="uni8ECA" unicode="&#xe0100;" 
d="M387 115l-254 -4q-20 0 -20 22v150q0 22 20 22l254 -4h524v135h-257l-285 -4q-16 0 -19 4t-3 19l4 194v322l-4 194q0 18 4 22q4 3 18 3l285 -4h257v127h-468l-264 -4q-18 0 -22 4q-3 4 -3 20v150q0 14 5 17q4 3 20 3l264 -4h468q-2 128 -16 217q124 -3 217 -14
q31 -4 31 -23q0 -23 -11 -41q-12 -22 -12 -139h487l267 4q22 0 22 -20v-150q0 -17 -4 -21q-4 -3 -18 -3l-267 4h-487v-127h279l284 4q16 0 20 -5q3 -4 3 -20l-4 -194v-322l4 -194q0 -16 -4 -19.5t-19 -3.5l-284 4h-279v-135h549l254 4q20 0 20 -22v-150q0 -22 -20 -22
l-254 4h-549l5 -252q0 -16 -5 -19q-4 -3 -20 -3h-170q-16 0 -19 4q-3 3 -3 18v34q2 107 3 218h-524zM1493 598v133h-373v-133h373zM1493 1024h-373v-133h373v133zM559 891h352v133h-352v-133zM559 598h352v133h-352v-133z" />
    <glyph glyph-name="uni8F9B" unicode="&#xe0100;" 
d="M514 250l-277 -4q-16 0 -19 4t-3 18v159q0 16 4 19t18 3l277 -4h385v243h-498l-258 -4q-16 0 -19 4t-3 18v161q0 20 22 20l258 -4h735q73 123 140 281q23 57 30 114q121 -28 197 -59q25 -9 25 -23q0 -12 -18 -30q-23 -20 -46 -72q-62 -128 -113 -211h299l256 4
q23 0 23 -20v-161q0 -15 -3.5 -18.5t-19.5 -3.5l-256 4h-530v-243h420l276 4q16 0 20 -4q3 -4 3 -18v-159q0 -15 -3.5 -18.5t-19.5 -3.5l-276 4h-420v-129l4 -262q0 -16 -4 -20q-4 -3 -18 -3h-183q-17 0 -21 5q-3 3 -3 18l4 262v129h-385zM522 1288l-274 -2q-18 0 -21 3
q-4 4 -4 20v156q0 16 5 19q4 3 20 3l274 -4h379v8q0 148 -16 230q139 -4 227 -15q33 -3 33 -20q0 -10 -14 -43q-11 -27 -11 -142v-18h410l274 4q18 0 22 -4q3 -4 3 -18v-156q0 -18 -5 -21q-3 -2 -20 -2l-274 2h-1008zM662 1276q11 4 18 4q10 0 20 -16q81 -136 125 -269
q3 -8 3 -13q0 -10 -23 -19l-133 -58q-18 -7 -27 -7q-11 0 -16 20q-41 143 -113 272q-7 12 -7 18q0 8 22 17z" />
    <glyph glyph-name="uni8FB0" unicode="&#xe0100;" 
d="M1986 50q-48 -48 -90 -140q-25 -53 -41 -53q-8 0 -47 14q-568 221 -754 840h-172v-565q135 28 401 96q-11 -55 -14 -121q-2 -53 -11 -63q-9 -9 -54 -21q-250 -73 -615 -143q-59 -14 -73 -29q-16 -12 -31 -12q-18 0 -27 31q-24 75 -45 196q102 7 213 23l43 6v602h-196
q-16 -170 -39 -299q-46 -256 -166 -487q-21 -39 -33 -39t-39 33q-71 82 -135 118q120 188 170 453q47 252 47 663l-4 434q0 18 5 22q4 3 20 3l280 -4h1016l274 4q16 0 20 -5q3 -4 3 -20v-151q0 -16 -5 -19q-3 -3 -18 -3l-274 4h-1106v-267q0 -100 -4 -256h1138l279 4
q18 0 21 -4t3 -18v-148q0 -15 -3.5 -18.5t-20.5 -3.5l-279 4h-374q55 -165 147 -287q110 82 176 154q41 41 68 86q75 -37 165 -100q25 -19 25 -35q0 -22 -29 -29q-30 -10 -67 -43q-107 -93 -213 -168q176 -158 465 -239zM909 1069l-273 -4q-16 0 -19 4t-3 18v148q0 16 4 19
t18 3l273 -4h541l272 4q20 0 20 -22v-148q0 -22 -20 -22l-272 4h-541z" />
    <glyph glyph-name="uni8FB5" unicode="&#xe0100;" 
d="M1157 599h326l198 4q16 0 20 -4q3 -4 3 -18v-157q0 -15 -3.5 -18.5t-19.5 -3.5l-198 4h-326v-311q125 -10 266 -10q243 0 531 32q-28 -60 -45 -155q-8 -51 -19 -60q-9 -7 -53 -10q-155 -12 -401 -12q-482 0 -709 143q-133 84 -209 186q-84 -177 -225 -321
q-33 -33 -43 -33q-8 0 -43 35q-57 59 -129 100q276 229 344 566q15 65 18 139q131 -20 189 -37q43 -10 43 -26q0 -17 -19 -35q-16 -16 -28 -78q-9 -34 -31 -119q63 -107 196 -197q68 -45 154 -71v684q-314 -46 -629 -68q-23 -1 -30 -1q-24 0 -33 13q-5 9 -17 46
q-18 57 -59 121q818 47 1382 198q103 28 168 66q98 -61 161 -117q20 -20 20 -41q0 -25 -51 -31q-44 -4 -133 -28q-268 -71 -566 -125v-250zM283 1526q343 20 547 48q230 31 436 87q96 26 168 65q94 -60 151 -108q23 -18 23 -41q0 -24 -51 -31q-49 -5 -133 -29
q-479 -130 -1006 -168q-23 -1 -31 -1q-23 0 -31 13q-6 9 -16 46q-17 60 -57 119zM283 1233q683 41 1112 160q103 27 168 65q90 -56 154 -109q20 -17 20 -40q0 -25 -49 -31q-46 -5 -135 -29q-523 -141 -1135 -190q-23 -2 -31 -2q-23 0 -31 13q-6 9 -16 46q-17 58 -57 117z
" />
    <glyph glyph-name="uni9091" unicode="&#xe0100;" 
d="M1733 359q66 -45 166 -72q42 -12 50 -19q11 -8 11 -26q0 -10 -3 -35q-14 -108 -55 -169q-31 -48 -89 -83q-75 -45 -250 -60q-147 -12 -463 -12q-363 0 -508 12q-135 12 -203 43q-131 55 -131 277v607l-4 166q0 16 4 19t19 3l284 -4h906l284 4q17 0 20 -4t3 -18l-4 -166
v-220l4 -166q0 -15 -3.5 -18.5t-19.5 -3.5l-284 4h-992v-162q0 -74 18 -104q20 -32 70 -42q82 -20 526 -20q483 0 562 49q50 28 65 79q11 38 17 141zM1553 588v248h-437v-248h437zM475 588h430v248h-430v-248zM1350 1647l278 4q17 0 20 -4t3 -19l-4 -151v-170l4 -151
q0 -17 -4 -20t-19 -3l-278 4h-658l-282 -4q-21 0 -21 23l4 151v170l-4 151q0 23 21 23l282 -4h658zM1436 1307v170h-834v-170h834z" />
    <glyph glyph-name="uni9149" unicode="&#xe0100;" 
d="M395 1441l-258 -4q-22 0 -22 20v158q0 17 4 20t18 3l258 -4h1264l258 4q16 0 20 -4q3 -4 3 -19v-158q0 -20 -23 -20l-258 4h-381v-212h201l280 4q18 0 22 -4q3 -4 3 -18l-4 -385v-388l4 -563q0 -16 -5 -20q-4 -3 -19 -3h-169q-16 0 -19 5q-3 3 -3 18v86h-1104v-92
q0 -16 -5 -20q-4 -3 -20 -3h-166q-16 0 -19 4t-3 19l4 565v347l-4 430q0 16 4 19t18 3l283 -4h164v212h-326zM465 1047v-576h1104v576h-291v-203q0 -49 6 -56q14 -14 47 -14q39 0 56 16q18 19 18 130q55 -35 121 -60q19 -8 19 -29q0 -5 -1 -14q-9 -131 -59 -172
q-53 -41 -178 -41q-129 0 -174 35q-28 21 -37 53q-8 28 -8 89v266h-176q-6 -153 -45 -261q-53 -133 -177 -229q-35 -27 -51 -27q-15 0 -43 31q-62 72 -111 92q149 79 189 187q37 86 45 207h-254zM465 145h1104v148h-1104v-148zM914 1229h174v212h-174v-212z" />
    <glyph glyph-name="uni91C6" unicode="&#xe0100;" 
d="M1987 172q-49 -60 -92 -145q-26 -49 -39 -49q-6 0 -47 20q-446 220 -695 602q2 -238 7 -516q4 -214 4 -221q0 -21 -23 -21h-184q-22 0 -22 21q0 15 2 129q6 341 8 595q-238 -368 -652 -587q-37 -20 -47 -20q-17 0 -43 49q-41 74 -98 131q436 181 709 544h-365l-260 -4
q-18 0 -21 4q-4 4 -4 19v158q0 16 5 19q4 3 20 3l260 -4h492v477q-310 -27 -547 -39h-24q-29 0 -38 13q-7 9 -20 49q-23 75 -66 135q380 0 752 41q260 26 452 69q114 25 181 52q91 -65 161 -136q23 -22 23 -43q0 -22 -35 -22q-48 -4 -103 -14q-341 -60 -519 -82v-500h520
l260 4q16 0 19 -4t3 -18v-158q0 -16 -3.5 -19.5t-18.5 -3.5l-260 4h-389q141 -181 348 -326q185 -130 389 -206zM1282 1008q92 115 168 272q21 42 36 102q99 -35 183 -75q27 -14 27 -31q0 -10 -25 -35q-17 -17 -45 -67q-55 -104 -127 -207q-30 -39 -45 -39q-13 0 -49 24
q-55 33 -123 56zM561 1294q85 -108 147 -252q5 -9 5 -15q0 -10 -23 -21l-133 -66q-20 -9 -25 -9q-8 0 -12 15q-57 152 -137 260q-9 12 -9 17q0 6 23 18l125 59q13 8 20 8q9 0 19 -14z" />
    <glyph glyph-name="uni91CC" unicode="&#xe0100;" 
d="M383 -76l-254 -4q-20 0 -20 23v154q0 17 4 21q3 3 16 3l254 -4h533v198h-363l-274 -4q-18 0 -22 5q-3 4 -3 19v150q0 17 5 21q4 3 20 3l274 -4h363v181h-279l-284 -4q-17 0 -20 4t-3 19l4 221v453l-4 220q0 17 4 20t19 3l284 -4h773l284 4q18 0 22 -4q3 -4 3 -19l-4 -220
v-453l4 -221q0 -17 -5 -20q-4 -3 -20 -3l-284 4h-283v-181h373l276 4q17 0 20 -5q3 -4 3 -19v-150q0 -16 -3.5 -20t-19.5 -4l-276 4h-373v-198h539l254 4q14 0 18 -5q2 -4 2 -19v-154q0 -23 -20 -23l-254 4h-1283zM1508 864v199h-381v-199h381zM541 864h375v199h-375v-199z
M1508 1436h-381v-193h381v193zM541 1243h375v193h-375v-193z" />
    <glyph glyph-name="uni91D1" unicode="&#xe0100;" 
d="M432 -86l-262 -4q-18 0 -21 4q-4 3 -4 16v156q0 16 5 19q4 3 20 3l262 -4h467v447h-391l-275 -4q-17 0 -21 4q-3 4 -3 18v154q0 16 4 19q5 3 20 3l275 -4h391v189h-80l-252 -3q-22 0 -22 21v121q-125 -78 -314 -162q-36 -16 -49 -16q-16 0 -41 47q-39 73 -98 121
q540 213 795 551q60 80 81 135q154 -20 221 -43q37 -11 37 -33q0 -13 -20 -29q-4 -4 -12 -8q326 -384 864 -534q-53 -58 -88 -146q-23 -51 -39 -51q-10 0 -49 14q-178 69 -328 156v-123q0 -21 -22 -21l-254 3h-111v-189h426l274 4q17 0 20 -4t3 -18v-154q0 -23 -8 -23l-15 1
l-274 4h-426v-447h496l264 4q16 0 19 -4t3 -18v-156q0 -20 -22 -20l-264 4h-1182zM621 1118q38 -2 198 -2h410q159 0 198 2q-245 156 -407 363q-173 -212 -399 -363zM1253 186q70 94 133 232q31 68 39 108q93 -25 172 -65q37 -19 37 -35q0 -15 -25 -33q-22 -18 -47 -65
q-56 -109 -108 -182q-21 -27 -33 -27q-11 0 -47 16q-72 39 -121 51zM596 502q81 -119 146 -271q4 -10 4 -16q0 -9 -23 -20l-127 -64q-21 -8 -27 -8q-7 0 -14 17q-65 176 -139 280q-8 10 -8 16q0 7 24 19l117 55q18 8 25 8q10 0 22 -16z" />
    <glyph glyph-name="uni9580" unicode="&#xe0100;" 
d="M1361 95q97 -10 199 -10q52 0 69 20q15 17 15 60v721h-313l-221 -4q-18 0 -22 4q-3 4 -3 19l4 193v329l-4 192q0 17 5 20q4 3 20 3l221 -4h284l223 4q17 0 20 -4t3 -19l-4 -268v-823l8 -408q0 -82 -13 -122q-13 -39 -46 -67q-41 -34 -105 -44q-64 -11 -209 -11
q-51 0 -61 10q-10 9 -18 56q-21 97 -52 153zM1292 1040h352v148h-352v-148zM1644 1476h-352v-145h352v145zM721 1638l198 4q17 0 20 -4t3 -19l-4 -208v-299l4 -207q0 -17 -4 -20t-19 -3l-198 4h-314v-582l4 -430q0 -16 -4 -19t-18 -3h-179q-15 0 -18.5 3.5t-3.5 18.5l4 430
v882l-4 433q0 17 4 20t19 3l237 -4h273zM735 1040v148h-328v-148h328zM735 1476h-328v-145h328v145z" />
    <glyph glyph-name="uni961C" unicode="&#xe0100;" 
d="M387 145l-254 -4q-20 0 -20 22v146q0 22 20 22l254 -4h521v134h-211l-308 -4q-22 0 -22 20l4 254v533l-4 255q0 17 4 20t18 3l304 -4h106q5 8 37 72q24 53 37 119q140 -19 206 -33q27 -7 27 -27q0 -12 -18 -31q-23 -22 -33 -43q-19 -42 -29 -57h263l300 4q17 0 20 -4
t3 -19l-4 -147v-149l4 -148q0 -16 -4 -19t-19 -3l-300 4h-711v-119h788l322 4q16 0 19 -4t3 -19l-4 -151v-137l4 -154q0 -20 -22 -20l-322 4h-239v-134h542l254 4q21 0 21 -22v-146q0 -22 -21 -22l-254 4h-542v-82l4 -211q0 -16 -4 -19t-19 -3h-180q-18 0 -22 4q-3 4 -3 18
l5 211v82h-521zM1497 633v135h-919v-135h919zM1399 1227v141h-821v-141h821z" />
    <glyph glyph-name="uni96B6" unicode="&#xe0100;" 
d="M383 1051l-254 -4q-20 0 -20 22v142q0 17 4 21q3 3 16 3l254 -4h531v139h-287l-280 -4q-17 0 -20 4t-3 18v137q0 18 4 22q4 3 19 3l280 -4h285q-3 96 -12 170q119 -3 210 -14q31 -3 31 -21q0 -19 -10 -43q-10 -20 -10 -92h248l335 4q18 0 22 -4q3 -5 3 -21l-4 -216v-78
l203 4q14 0 17 -5q3 -4 3 -19v-142q0 -22 -20 -22q-4 0 -28 1q-81 2 -175 3v-82l4 -218q0 -16 -5 -19q-4 -3 -20 -3l-335 4h-187q89 -154 193 -266q110 86 198 184q34 40 60 76q88 -48 153 -100q29 -23 29 -33q0 -20 -25 -29q-28 -10 -67 -47q-139 -118 -213 -176
q182 -145 432 -238q-57 -45 -102 -133q-26 -49 -39 -49q-9 0 -50 21q-440 232 -634 602q8 -435 8 -469q0 -79 -14 -115q-12 -34 -48 -64q-56 -41 -248 -41h-36q-47 0 -56 10q-8 8 -20 52q-22 97 -59 154q63 -9 202 -9q44 0 57 15q11 13 11 51v174q-295 -172 -592 -291
q-36 -15 -55 -39q-14 -16 -31 -16q-15 0 -29 27q-18 35 -78 198q97 22 146 39q158 55 345 137q186 83 294 148v227h-293l-279 -4q-16 0 -19 4t-3 18v138q0 16 4 19t18 3l279 -4h293v144h-531zM1522 907v144h-401v-144h401zM1522 1370h-401v-139h401v139zM475 711
q116 -72 238 -185q12 -12 12 -20t-14 -23l-107 -94q-17 -15 -24 -15t-17 11q-87 97 -231 201q-12 9 -12 16q0 8 16 25l94 78q19 14 25 14q8 0 20 -8z" />
    <glyph glyph-name="uni96B9" unicode="&#xe0100;" 
d="M57 938q261 223 419 625q30 73 48 145q125 -34 198 -63q29 -11 29 -31q0 -18 -20 -33q-22 -15 -44 -67q-12 -29 -77 -164h407q32 65 88 211q16 45 33 127q125 -22 208 -53q29 -11 29 -27t-20 -33q-17 -14 -35 -55q-65 -139 -82 -170h322l280 4q17 0 20 -4t3 -19v-156
q0 -16 -4 -19t-19 -3l-280 4h-332v-203h229l277 4q16 0 19 -4t3 -18v-150q0 -17 -4 -21q-4 -3 -18 -3l-277 4h-229v-209h229l277 4q16 0 19 -4t3 -18v-150q0 -16 -3.5 -20t-18.5 -4l-277 4h-229v-217h346l285 4q16 0 19 -4q3 -5 3 -21v-154q0 -15 -3.5 -18.5t-18.5 -3.5
l-285 4h-987v-98q0 -21 -23 -21h-174q-22 0 -22 21l4 236v859q-81 -106 -141 -171q-30 -33 -39 -33q-13 0 -35 41q-52 97 -100 145zM587 152h430v217h-430v-217zM587 557h430v209h-430v-209zM587 954h430v203h-430v-203z" />
    <glyph glyph-name="uni96E8" unicode="&#xe0100;" 
d="M1365 82q107 -8 194 -8q42 0 56 17q12 15 12 52v879h-514v-838l4 -278q0 -18 -5 -22q-3 -3 -18 -3h-172q-16 0 -19 5q-3 4 -3 20l4 278v838h-477v-864l4 -275q0 -16 -5 -19q-3 -3 -18 -3h-172q-16 0 -19 4t-3 18l4 287v725l-4 291q0 16 4 19t18 3l281 -4h387v217h-526
l-255 -4q-14 0 -17 4q-3 5 -3 21v153q0 23 20 23l255 -4h1294l252 4q20 0 20 -23v-153q0 -18 -4 -22q-3 -3 -16 -3l-252 4h-559v-217h424l280 4q16 0 20 -4q3 -4 3 -18l-4 -305v-553l6 -242q0 -109 -54 -160q-57 -51 -290 -51q-48 0 -60 11t-20 55q-18 84 -53 141zM1325 918
q146 -104 234 -197q10 -10 10 -16q0 -9 -19 -27l-86 -84q-17 -17 -26 -17q-7 0 -17 11q-115 125 -231 209q-12 9 -12 15q0 7 18 24l90 79q12 11 20 11t19 -8zM631 512q116 -84 211 -190q9 -10 9 -16q0 -9 -17 -25l-95 -95q-14 -14 -24 -14t-19 12q-109 137 -207 211
q-11 10 -11 16q0 7 18 21l88 76q17 14 26 14q7 0 21 -10zM1325 528q132 -90 227 -186q11 -10 11 -16q0 -10 -17 -27l-84 -88q-18 -18 -26 -18q-9 0 -19 12q-112 126 -223 207q-11 8 -11 15t17 22l78 73q16 15 26 15q8 0 21 -9zM633 920q136 -101 213 -187q10 -10 10 -17
q0 -8 -18 -26l-90 -82q-18 -17 -26 -17q-7 0 -16 12q-101 115 -210 200q-12 9 -12 16q0 6 16 21l92 78q12 10 20 10t21 -8z" />
    <glyph glyph-name="uni9751" unicode="&#xe0100;" 
d="M1160 55q95 -11 202 -11q72 0 72 68v162h-815v-192l4 -220q0 -16 -4 -19t-18 -3h-167q-16 0 -19 4t-3 18l4 220v458l-4 225q0 17 4 20t18 3l281 -4h623l280 4q17 0 20 -4t3 -19l-4 -241v-219l6 -240q0 -120 -55 -162q-62 -49 -307 -49q-42 0 -51 7q-7 7 -13 36
q-15 87 -57 158zM1434 628h-315v-196h315v196zM619 432h301v196h-301v-196zM402 887l-258 -4q-23 0 -23 20v126q0 16 4 19t19 3l258 -4h499v95h-243l-281 -4q-16 0 -20 4q-3 4 -3 19v112q0 16 5 19q3 2 18 2l281 -2h243v92h-356l-277 -4q-16 0 -19 4q-3 5 -3 21v120
q0 17 4 20t18 3l277 -4h356q0 106 -14 180q127 -3 221 -14q31 -3 31 -21q0 -20 -10 -40q-13 -25 -13 -105h391l277 4q16 0 20 -4q3 -4 3 -19v-120q0 -18 -5 -22q-3 -3 -18 -3l-277 4h-391v-92h285l279 2q18 0 21 -3t3 -18v-112q0 -17 -4 -20q-5 -3 -20 -3l-279 4h-285v-95
h537l258 4q16 0 19 -4t3 -18v-126q0 -20 -22 -20l-258 4h-1251z" />
    <glyph glyph-name="uni975E" unicode="&#xe0100;" 
d="M190 -1q202 71 303 174q87 88 133 232q-110 -29 -331 -82q-76 -19 -93 -29q-28 -14 -38 -14q-20 0 -31 33q-22 76 -41 194q98 6 188 21q214 38 396 82q9 62 16 184h-248l-223 -4q-18 0 -21 4q-4 4 -4 19v157q0 17 5 20q4 3 20 3l223 -4h252v203h-283l-241 -4q-16 0 -20 4
q-3 4 -3 19v160q0 16 4 19t19 3l241 -4h283q-3 201 -20 311q123 -3 221 -12q37 -5 37 -27q0 -12 -14 -45q-13 -40 -13 -227v-339q0 -240 -12 -383q34 10 151 47q-8 -35 -12 -123q-2 -54 -11 -65q-9 -10 -53 -23q-34 -12 -104 -33l-25 -90q-58 -200 -182 -335
q-100 -108 -258 -191q-37 -18 -49 -18q-16 0 -45 43q-46 71 -117 120zM1125 1704q128 -3 219 -14q33 -3 33 -20t-10 -41q-15 -38 -15 -228v-12h293l242 4q16 0 19 -4t3 -18v-160q0 -17 -4 -20t-18 -3l-242 4h-293v-240h256l223 4q16 0 20 -5q3 -4 3 -20v-155
q0 -16 -3.5 -19.5t-19.5 -3.5l-223 4h-256v-265h315l250 4q21 0 21 -23v-160q0 -22 -21 -22l-250 4h-315v-72l4 -354q0 -16 -4 -19t-19 -3h-174q-16 0 -19 4t-3 18l4 352v1174q0 195 -16 309z" />
    <glyph glyph-name="uni9762" unicode="&#xe0100;" 
d="M400 1435l-258 -4q-23 0 -23 20v161q0 16 4 19t19 3l258 -4h1247l258 4q18 0 22 -4q3 -4 3 -18v-161q0 -14 -5 -17q-4 -3 -20 -3l-258 4h-533q-45 -128 -101 -233h538l278 4q17 0 20 -4t3 -19l-4 -386v-371l4 -553q0 -16 -4 -19t-19 -3h-173q-17 0 -20 4t-3 18v76h-1217
v-82q0 -16 -4 -20q-4 -3 -19 -3h-172q-16 0 -19 5q-3 3 -3 18l4 557v328l-4 431q0 17 4 20t19 3l278 -4h282q55 101 100 233h-482zM1633 1024h-257v-893h257v893zM416 1024v-893h254v893h-254zM860 131h323v195h-323v-195zM860 498h323v178h-323v-178zM860 848h323v176h-323
v-176z" />
    <glyph glyph-name="uni9769" unicode="&#xe0100;" 
d="M392 143l-256 -4q-17 0 -20 4t-3 18v146q0 17 4 21q4 3 19 3l256 -4h518v134h-271l-284 -4q-23 0 -23 20l4 154v168l-4 149q0 18 4 22q4 3 19 3l284 -4h271v127h-45l-233 -5q-17 0 -20 4t-3 18l4 196v53h-217l-256 -4q-18 0 -22 4q-3 4 -3 18v144q0 17 5 21q4 3 20 3
l256 -4h217q0 96 -13 176q133 -4 205 -12q29 -3 29 -21q0 -7 -5 -18q-6 -13 -7 -16q-9 -22 -9 -109h414q0 99 -12 176q133 -4 204 -12q29 -3 29 -21q0 -5 -12 -34q-8 -17 -8 -109h225l256 4q18 0 21 -5q4 -4 4 -19v-144q0 -16 -5 -19q-4 -3 -20 -3l-256 4h-225v-53l4 -196
q0 -16 -4 -19q-5 -3 -21 -3l-231 5h-59v-127h290l285 4q18 0 22 -5q3 -4 3 -20l-5 -149v-168l5 -154q0 -14 -4 -17t-21 -3l-285 4h-290v-134h540l256 4q18 0 22 -5q3 -4 3 -19v-146q0 -15 -4 -18.5t-21 -3.5l-256 4h-540v-4l4 -287q0 -16 -4 -19t-19 -3h-172q-20 0 -20 22
l4 287v4h-518zM1508 621v188h-391v-188h391zM541 621h369v188h-369v-188zM1227 1243v119h-414v-119h414z" />
    <glyph glyph-name="uni97CB" unicode="&#xe0100;" 
d="M398 80l-258 -4q-17 0 -20 4t-3 18v136q0 16 4 19t19 3l229 -4v137l-4 118q0 17 4 20t18 3l287 -4h389v101h-350l-278 -4q-18 0 -22 4q-3 4 -3 19l4 120v113l-4 121q0 16 5 19q4 3 20 3l278 -4h623l280 4q17 0 20 -4t3 -18l-4 -121v-113l4 -120q0 -16 -3.5 -19.5
t-19.5 -3.5l-280 4h-64v-101h197l278 4q18 0 22 -4q3 -4 3 -19v-129q0 -15 -4 -18.5t-21 -3.5l-278 4h-197v-108h379l258 4q16 0 20 -4q3 -4 3 -18v-136q0 -15 -4 -18.5t-19 -3.5l-258 4h-379l4 -221q0 -16 -4 -20q-4 -3 -18 -3h-172q-17 0 -20 5q-3 3 -3 18l4 221h-665z
M1422 766v113h-795v-113h795zM576 252h487v108h-487v-108zM414 1100l-260 -4q-18 0 -22 4q-3 4 -3 18v136q0 16 5 19q4 3 20 3l260 -4h248q28 62 49 116h-57l-277 -4q-18 0 -21 5q-3 4 -3 19v126q0 17 4 21q4 3 20 3l277 -4h116l17 49q17 59 22 115q138 -12 217 -24
q33 -7 33 -23t-18 -35q-17 -16 -29 -51q-8 -21 -10 -31h315l278 4q18 0 22 -5q3 -4 3 -20l-4 -118v-143h21l260 4q17 0 21 -4q3 -4 3 -18v-136q0 -16 -4 -19t-20 -3l-260 4h-1223zM1403 1388h-465q-28 -71 -51 -116h516v116z" />
    <glyph glyph-name="uni97ED" unicode="&#xe0100;" 
d="M372 -78l-252 -4q-20 0 -20 22v157q0 17 4 21q3 3 16 3l252 -4h338v237h-260l-231 -4q-18 0 -22 4q-3 4 -3 18v152q0 16 4 19q5 3 21 3l231 -4h260v210h-227l-215 -4q-16 0 -20 4q-3 4 -3 18v150q0 16 4 19t19 3l215 -4h227v201h-258l-229 -4q-18 0 -22 5q-3 4 -3 19v154
q0 14 5 17q4 3 20 3l229 -4h258v90q0 174 -14 275q134 -4 223 -15q31 -3 31 -26q0 -14 -13 -41q-14 -35 -14 -136v-1359h191v1302q0 189 -12 275q126 -4 217 -15q33 -3 33 -22q0 -17 -13 -41q-12 -28 -12 -140v-147h283l233 4q18 0 21 -4q4 -3 4 -16v-156q0 -16 -5 -19
q-4 -3 -20 -3l-233 4h-283v-201h248l217 4q16 0 19 -4t3 -18v-150q0 -16 -3.5 -20t-18.5 -4l-217 4h-248v-208h277l235 4q16 0 20 -5q3 -4 3 -19v-152q0 -15 -4 -18.5t-19 -3.5l-235 4h-277v-235h354l252 4q15 0 18 -5q3 -4 3 -19v-157q0 -22 -21 -22l-252 4h-1309z" />
    <glyph glyph-name="uni97F3" unicode="&#xe0100;" 
d="M606 -161h-170q-16 0 -19 4t-3 18l4 393v198l-4 274q0 17 4 20t18 3l279 -4h621l278 4q18 0 22 -4q3 -4 3 -19l-4 -243v-225l4 -389q0 -14 -5 -17q-4 -3 -19 -3h-168q-23 0 -23 20v70h-795v-78q0 -16 -4 -19t-19 -3zM629 115h795v149h-795v-149zM629 569v-135h795v135
h-795zM385 875l-254 -4q-20 0 -20 22v146q0 22 20 22l254 -4h226q-35 111 -80 201q-4 7 -4 12q0 12 26 18l142 41q7 2 12 2q12 0 27 -25q51 -96 98 -249h348q40 83 72 174q16 47 24 100q106 -21 194 -47q27 -8 27 -24q0 -18 -18 -33q-9 -8 -27 -47l-55 -123h273l253 4
q17 0 20 -4t3 -18v-146q0 -16 -4 -19t-19 -3l-253 4h-1285zM527 1344l-277 -4q-16 0 -19 4q-3 5 -3 21v141q0 17 4 21q4 3 18 3l277 -4h377v4q0 129 -15 186q98 0 221 -10q31 -3 31 -20q0 -3 -10 -39q-10 -23 -10 -117v-4h401l275 4q16 0 19 -5q3 -4 3 -19v-141
q0 -18 -4 -22q-4 -3 -18 -3l-271 4h-999z" />
    <glyph glyph-name="uni9801" unicode="&#xe0100;" 
d="M430 1436l-264 -4q-23 0 -23 20v154q0 17 4 21q4 3 19 3l264 -4h1194l264 4q16 0 20 -5q3 -4 3 -19v-154q0 -20 -23 -20l-264 4h-502q-37 -94 -67 -152h307l283 4q16 0 19 -4t3 -18l-4 -238v-547l4 -238q0 -14 -3 -17t-19 -3l-283 2h-670l-282 -2q-17 0 -20 3t-3 17
l4 238v547l-4 238q0 16 4 19t19 3l282 -4h135q35 64 68 152h-465zM602 688h850v137h-850v-137zM1452 397v135h-850v-135h850zM602 1114v-133h850v133h-850zM665 219q89 -38 166 -92q27 -19 27 -33q0 -22 -33 -29q-19 -3 -80 -39q-199 -115 -465 -176q-27 -6 -43 -6
q-29 0 -51 49q-43 95 -82 134q274 38 455 129q76 35 106 63zM1941 20q-48 -53 -86 -133q-22 -49 -53 -49q-16 0 -43 6q-332 79 -562 240q-12 9 -12 16t21 21l123 78q21 12 29 12q7 0 16 -6q227 -136 567 -185z" />
    <glyph glyph-name="uni98A8" unicode="&#xe0100;" 
d="M66 -2q144 185 178 422q37 252 37 680l-4 509q0 18 4 22q4 3 18 3l281 -4h823l285 4q16 0 20 -5q3 -4 3 -20l-7 -288v-78q0 -652 35 -866q26 -149 40 -196q18 -62 40 -62q42 0 49 293q42 -58 121 -105q25 -13 25 -34q0 -6 -2 -22q-1 -19 -2 -30q-25 -350 -199 -350
q-103 0 -168 128q-53 105 -92 314q-44 259 -47 926v205h-1022v-346q0 -440 -39 -729q-40 -275 -176 -477q-24 -37 -33 -37q-11 0 -41 33q-58 69 -127 110zM1409 368q93 -166 151 -366q3 -10 3 -15q0 -9 -23 -20l-111 -49q-16 -7 -22 -7q-11 0 -14 21q-30 109 -41 141
q-298 -59 -717 -108q-64 -8 -78 -17q-21 -14 -31 -14q-21 0 -30 33q-27 95 -39 186q35 -2 65 -2q56 0 158 8q90 6 220 23v240h-66l-230 -4q-22 0 -22 20l4 158v200l-4 156q0 17 4 20t18 3l230 -5h66v146q-75 -11 -226 -23q-22 -1 -33 -1q-25 0 -33 10q-4 6 -12 32
q-27 89 -53 125q345 15 618 78q96 24 143 49q47 -39 113 -123q19 -21 19 -39q0 -22 -45 -22q-28 0 -95 -19q-105 -24 -208 -40v-173h63l227 5q18 0 22 -4q3 -4 3 -19l-4 -156v-200l4 -158q0 -14 -4 -17t-21 -3l-227 4h-65v-217l202 30l-37 76q-4 12 -4 16q0 7 25 17l100 39
q12 4 18 4q9 0 19 -19zM756 575h146v248h-146v-248zM1227 575v248h-141v-248h141z" />
    <glyph glyph-name="uni98DB" unicode="&#xe0100;" 
d="M1762 1663q61 -38 127 -98q23 -20 23 -33q0 -18 -25 -25q-22 -5 -47 -26q-76 -65 -140 -109l-24 -16q8 0 14 -2q91 -29 229 -109q15 -8 15 -16q0 -7 -12 -29l-62 -98q35 -29 74 -45q35 -13 35 -34q0 -13 -8 -46q-59 -192 -175 -217q47 -28 76 -53q25 -20 25 -31
q0 -12 -21 -22q-12 -4 -37 -33q-24 -26 -120 -117l-11 -10q9 0 13 -2q124 -49 233 -127q17 -13 17 -18q0 -6 -11 -23l-76 -100q32 -31 80 -51q36 -16 36 -36q0 -11 -9 -50q-50 -230 -199 -230q-104 0 -213 85q-98 76 -170 200q-109 188 -120 514h-211v-442l4 -351
q0 -16 -5 -19q-4 -3 -20 -3h-166q-18 0 -21 4t-3 18l4 351v442h-246q-15 -203 -69 -358q-77 -234 -258 -418q-36 -33 -45 -33q-13 0 -41 41q-44 62 -115 111q202 169 266 370q42 124 58 287h-13l-280 -4q-18 0 -22 4q-3 4 -3 18v150q0 16 5 19q4 3 20 3l280 -4h25
q2 33 2 104v115q-94 -38 -162 -60q-3 0 -31 -9q-12 -3 -18 -3q-15 0 -33 41q-32 74 -74 115q299 79 457 186q79 57 88 66q32 -21 125 -104q21 -18 21 -35t-33 -27q-13 -4 -70 -35l-69 -41v-211q0 -69 -2 -102h237v223q0 202 -17 312q120 -4 218 -15q37 -4 37 -26
q0 -13 -9 -29t-10 -21q-12 -40 -12 -217v-227h92l286 4q25 0 25 -25q-1 -18 -1 -47q0 -73 11 -192q20 -206 76 -315q46 -88 116 -144q54 -43 91 -43q38 0 61 144q-123 94 -216 139q-15 7 -15 13t10 20l62 76q-7 -3 -14 -3q-19 0 -50 35q-45 49 -86 76q99 71 164 139
q25 25 33 39q-181 19 -289 199q-110 178 -121 485h-792l-281 -4q-16 0 -19 4t-3 18v148q0 16 4 19t18 3l281 -4h682l282 4q27 0 27 -25q-3 -51 -3 -95q0 -67 6 -133q27 -197 74 -287q39 -70 92 -104q38 -25 68 -25q39 0 66 143q-99 66 -217 113q-16 5 -16 14t12 25l67 92
q-2 -1 -5 -1q-12 0 -25 21q-48 74 -95 105q124 70 187 132q35 35 49 58z" />
    <glyph glyph-name="uni98DF" unicode="&#xe0100;" 
d="M49 1153q478 149 782 473q49 49 84 119q116 -13 215 -39q35 -8 35 -23q0 -12 -20 -24l-7 -4q156 -157 394 -286q229 -124 475 -185q-50 -62 -78 -144q-20 -53 -37 -53q-15 0 -49 12q-123 41 -246 103l-2 -170v-267q0 -108 2 -141q90 -53 155 -98q25 -18 25 -33
q0 -20 -31 -27q-31 -10 -65 -37q-153 -112 -238 -166q174 -71 506 -127q-44 -56 -78 -143q-20 -53 -43 -53q-12 0 -45 8q-462 114 -692 313q-6 -28 -10 -90q-2 -52 -11 -62q-9 -9 -54 -17q-404 -83 -682 -125q-54 -10 -80 -25q-21 -12 -35 -12q-15 0 -25 31q-21 81 -39 198
q124 6 220 16l57 4v779l-2 217q-89 -46 -213 -94q-39 -14 -47 -14q-17 0 -39 53q-31 79 -82 133zM567 1153h348v16q0 107 -14 193q103 -3 206 -14q31 -3 31 -23q0 -22 -12 -41q-12 -20 -12 -90v-41h174q164 0 211 2q-289 160 -479 379q-190 -220 -453 -381zM1071 182
q-117 108 -205 262h-223v-338q203 31 428 76zM1392 602v125h-749v-125h749zM1392 995h-749v-114h749v114zM1288 444h-201q68 -105 182 -186q154 99 248 184z" />
    <glyph glyph-name="uni9996" unicode="&#xe0100;" 
d="M391 1231l-256 -4q-16 0 -19 4t-3 18v146q0 16 4 19t18 3l256 -4h279q-9 6 -14 18q-39 91 -123 201q-7 9 -7 15q0 8 21 16l144 51q15 6 21 6q11 0 22 -16q74 -88 124 -195q6 -10 6 -14q0 -7 -26 -19l-152 -63h455q83 127 119 211q23 53 33 98q154 -29 207 -47
q29 -11 29 -26q0 -21 -25 -35q-17 -10 -32 -41q-40 -70 -105 -160h295l256 4q16 0 19 -4t3 -18v-146q0 -16 -4 -19t-18 -3l-256 4h-549q-40 -111 -66 -168h324l284 4q17 0 20 -4t3 -19l-4 -351v-310l4 -502q0 -16 -4 -19t-18 -3h-166q-17 0 -20 4t-3 18v72h-885v-76
q0 -20 -23 -20h-166q-22 0 -22 20l4 506v275l-4 386q0 17 4 20t19 3l284 -4h144q35 76 63 168h-494zM582 121h885v153h-885v-153zM582 893v-145h885v145h-885zM582 440h885v142h-885v-142z" />
    <glyph glyph-name="uni9999" unicode="&#xe0100;" 
d="M426 1102l-262 -4q-16 0 -19 4t-3 18v142q0 20 22 20l262 -4h482v145q-201 -15 -463 -22q-21 -1 -27 -1q-29 0 -40 12q-6 7 -23 44q-33 72 -68 113q314 2 670 33q202 19 387 55q102 19 178 45q95 -59 166 -119q20 -20 20 -41q0 -24 -43 -24q-61 0 -111 -11
q-139 -29 -436 -63v-166h502l262 4q23 0 23 -20v-142q0 -16 -4 -19t-19 -3l-262 4h-346q259 -205 701 -317q-45 -57 -82 -132q-27 -55 -43 -55q-8 0 -47 14q-91 32 -191 79v-5l-4 -227v-213l4 -375q0 -14 -5 -17q-4 -3 -20 -3h-165q-23 0 -23 20v68h-752v-78q0 -20 -22 -20
h-166q-22 0 -22 20l4 379v186l-5 256q-90 -45 -188 -80q-39 -14 -49 -14q-15 0 -41 51q-42 77 -84 119q424 118 676 344h-324zM486 707l245 -2h584q201 0 258 4q-284 142 -459 332l9 -264q0 -17 -4 -20t-19 -3h-176q-21 0 -21 23q0 14 4 116q4 95 5 146q-172 -199 -426 -332
zM647 105h752v143h-752v-143zM647 539v-129h752v129h-752z" />
    <glyph glyph-name="uni99AC" unicode="&#xe0100;" 
d="M1665 471h-996l-331 -4q-18 0 -22 4q-3 4 -3 18l4 267v575l-4 266q0 17 5 20q4 3 20 3l331 -4h819l279 4q16 0 19 -4t3 -19v-143q0 -16 -4 -19t-18 -3l-279 4h-342v-152h226l276 4q18 0 22 -4q3 -4 3 -18v-134q0 -16 -5 -19q-4 -3 -20 -3l-276 4h-226v-147h226l276 4
q18 0 22 -4q3 -4 3 -18v-134q0 -16 -5 -19q-4 -3 -20 -3l-276 4h-226v-152h437l284 4q27 0 27 -17v-6q-4 -32 -8 -97q-3 -62 -5 -80q-28 -370 -92 -478q-61 -108 -215 -108q-75 0 -114 2q-40 2 -48 12q-8 9 -18 58q-18 92 -45 135q104 -14 172 -14q49 0 71 19q23 21 36 75
q26 116 37 321zM526 1284h414v152h-414v-152zM526 645h414v152h-414v-152zM526 967h414v147h-414v-147zM289 391q6 18 14 18q5 0 27 -8l125 -45q25 -8 25 -22q0 -5 -3 -15q-63 -229 -192 -420q-9 -14 -15 -14q-4 0 -24 11l-131 77q-24 15 -24 24q0 6 7 15q125 152 191 379z
M584 348l122 12q13 1 16 1q14 0 19 -21q44 -166 60 -363q1 -5 1 -10q0 -16 -30 -20l-133 -21q-16 -2 -22 -2q-13 0 -15 22q-12 208 -47 373q-2 10 -2 13q0 14 31 16zM926 358l112 21q13 2 17 2q11 0 18 -21q52 -135 86 -303q2 -8 2 -12q0 -12 -26 -16l-121 -29
q-18 -3 -23 -3q-13 0 -16 22q-25 163 -74 309q-4 10 -4 15q0 9 29 15zM1391 401q59 -118 96 -245q3 -11 3 -16q0 -9 -24 -17l-110 -35q-16 -4 -22 -4q-11 0 -17 21q-30 132 -86 255q-5 11 -5 16q0 11 27 17l99 25q11 3 17 3q13 0 22 -20z" />
    <glyph glyph-name="uni9AA8" unicode="&#xe0100;" 
d="M1612 1114l267 4q16 0 19 -4t3 -18l-4 -93v-84l4 -204q0 -16 -3.5 -19.5t-19.5 -3.5h-166q-16 0 -19 4t-3 19v231h-1329v-231q0 -17 -4 -20t-19 -3h-165q-17 0 -20 4t-3 19l4 204v70l-4 107q0 16 4 19t19 3l266 -4h4v321l-4 184q0 17 4 20t19 3l274 -4h577l274 4
q18 0 22 -4q3 -4 3 -19l-4 -184v-321h4zM904 1235l-4 111q0 17 4 21q4 3 19 3l192 -4h286v104h-747v-356h250v121zM1104 1114h297v117h-297v-117zM1090 45q104 -8 195 -8q43 0 56 17q11 14 11 52v70h-653v-84l4 -229q0 -16 -4 -20q-4 -3 -19 -3h-168q-16 0 -19 5q-3 3 -3 18
l4 225v501l-4 230q0 17 4 20t18 3l267 -4h493l267 4q16 0 19 -4t3 -19l-4 -248v-264l6 -241q0 -110 -53 -158q-62 -53 -289 -53q-51 0 -63 10t-21 51q-16 76 -47 129zM699 321h653v107h-653v-107zM1352 676h-653v-103h653v103z" />
    <glyph glyph-name="uni9AD8" unicode="&#xe0100;" 
d="M1456 59q81 -8 131 -8q51 0 51 58v448h-1224v-459l4 -231q0 -16 -4 -20q-4 -3 -18 -3h-177q-16 0 -19 5q-3 3 -3 18l4 231v398l-4 216q0 17 4 20t19 3l276 -4h1060l276 4q17 0 20 -4t3 -19l-4 -233v-168l4 -260q0 -103 -49 -147q-30 -26 -82 -35q-47 -8 -149 -8
q-50 0 -60 11q-9 9 -16 52q-13 79 -43 135zM1274 1262l264 4q17 0 20 -4t3 -18l-4 -133v-126l4 -129q0 -16 -4 -19t-19 -3l-264 4h-494l-263 -4q-17 0 -20 4t-3 18l4 129v126l-4 133q0 16 4 19t19 3l263 -4h494zM1356 981v136h-660v-136h660zM410 1362l-260 -4q-17 0 -20 4
t-3 18v144q0 16 4 19t19 3l260 -4h497v6q0 113 -14 170q101 0 217 -10q33 -3 33 -21q0 -2 -14 -41q-9 -32 -9 -98v-6h525l260 4q16 0 19 -4t3 -18v-144q0 -16 -4 -19t-18 -3l-260 4h-1235zM789 -18h-148q-16 0 -19 4t-3 18l4 235v77l-4 129q0 16 4 19t18 3l221 -4h320l220 4
q17 0 20 -4t3 -18l-4 -109v-90l4 -230q0 -15 -3.5 -18.5t-18.5 -3.5h-152q-17 0 -21 4q-3 4 -3 18v43h-416v-55q0 -15 -3.5 -18.5t-18.5 -3.5zM811 326v-132h416v132h-416z" />
    <glyph glyph-name="uni9ADF" unicode="&#xe0100;" 
d="M72 156q59 0 145 8q92 194 147 393h-6l-260 -4q-16 0 -19 4t-3 18v148q0 16 4 19t18 3l164 -4v613l-4 235q0 16 4 20q4 3 18 3l230 -4h309l225 4q17 0 20 -4t3 -19v-143q0 -16 -4 -19t-19 -3l-225 4h-356v-115h282l224 4q17 0 21 -4q3 -4 3 -18v-130q0 -16 -4 -19t-20 -3
l-224 4h-282v-117h282l224 4q17 0 21 -4q3 -4 3 -18v-132q0 -14 -4 -17t-20 -3l-224 4h-282v-123h358l262 4q16 0 20 -4q3 -4 3 -18v-33q345 147 565 385q50 58 68 99q81 -56 155 -124q21 -20 21 -34t-25 -25q-23 -10 -67 -59q-224 -246 -527 -404q-40 -18 -45 -18
q-16 0 -43 45q-46 73 -102 133v-113q0 -16 -4 -19t-19 -3l-262 4h-237q-62 -200 -134 -364q205 26 351 59q-43 77 -92 154q-8 11 -8 17q0 8 20 17l117 52q15 5 19 5q8 0 19 -14q133 -185 240 -405q355 154 602 418q49 53 88 120q75 -53 154 -129q20 -20 20 -34
q0 -13 -29 -29q-23 -13 -71 -68q-278 -301 -641 -477q-34 -18 -47 -18q-16 0 -43 45q-43 67 -82 106l-90 -45q-18 -8 -25 -8q-9 0 -16 17l-49 110q-255 -59 -621 -127q-74 -14 -92 -25q-18 -12 -29 -12q-17 0 -28 33q-29 94 -45 201zM1665 1677q93 -65 156 -125
q25 -21 25 -35q0 -18 -25 -28q-26 -9 -71 -52q-226 -202 -480 -335q-41 -21 -49 -21q-14 0 -41 53q-41 79 -92 127q296 123 500 320q45 41 77 96z" />
    <glyph glyph-name="uni9B25" unicode="&#xe0100;" 
d="M1360 78q104 -10 215 -10q54 0 73 19q17 18 17 60v1246q0 172 -18 290q117 -3 221 -12q33 -3 33 -22q0 -15 -12 -43q-13 -25 -13 -207v-885l6 -407q0 -81 -16 -123q-16 -40 -54 -68q-75 -53 -270 -53q-96 0 -112 10q-14 9 -23 55q-16 93 -47 150zM160 1681
q118 -3 219 -12q33 -3 33 -22q0 -12 -13 -41q-12 -32 -12 -228v-1165l4 -350q0 -21 -23 -21h-174q-22 0 -22 21l4 350v1159q0 195 -16 309zM1581 1634q16 0 20 -4q3 -4 3 -18v-113q0 -16 -4 -20q-4 -3 -19 -3l-155 4v-104l141 4q16 0 20 -4q3 -4 3 -18v-107q0 -16 -5 -19
q-3 -3 -18 -3l-141 4v-119l170 4q16 0 19 -4t3 -19v-112q0 -17 -4 -20t-18 -3l-174 4h-170l-172 -4q-18 0 -22 4q-3 4 -3 19v112q0 17 5 20q4 3 20 3l167 -4v119l-145 -4q-16 0 -19 4t-3 18v107q0 16 4 19t18 3l145 -4v104l-157 -4q-16 0 -20 4q-3 4 -3 19v113q0 16 4 19
t19 3l168 -4h155zM955 1634q16 0 19 -4t3 -18v-113q0 -16 -4 -20q-4 -3 -18 -3l-156 4v-104l145 4q17 0 20 -4t3 -18v-107q0 -16 -4 -19t-19 -3l-145 4v-119l166 4q16 0 19 -4t3 -19v-112q0 -17 -4 -20t-18 -3l-174 4h-160l-174 -4q-16 0 -20 4q-3 4 -3 19v112q0 17 5 20
q3 3 18 3l164 -4v119l-135 -4q-16 0 -20 4q-3 4 -3 18v107q0 16 4 19t19 3l135 -4v104l-150 -4q-16 0 -19 4t-3 19v113q0 16 4 19t18 3l168 -4h148z" />
    <glyph glyph-name="uni9B2F" unicode="&#xe0100;" 
d="M1427 616q80 -56 156 -129q25 -24 25 -41q0 -25 -43 -28q-24 -2 -98 -21q-263 -72 -502 -112q-208 -37 -398 -60v-16q0 -76 18 -100q17 -23 68 -33q90 -12 400 -12q269 0 381 10q108 10 151 35q42 25 59 79q12 43 17 134q58 -39 157 -66q34 -11 41 -16q9 -7 9 -23
q0 -7 -3 -33q-11 -106 -44 -163q-28 -47 -87 -87q-67 -42 -235 -55q-134 -10 -451 -10q-269 0 -375 6q-131 8 -190 31q-76 30 -103 89q-25 55 -25 167v217q0 172 -10 235h-115q-17 0 -20 5q-3 3 -3 18l4 264v469q0 180 -16 287q116 -3 217 -15q31 -3 31 -22q0 -15 -12 -43
q-13 -30 -13 -185v-526h661q-73 67 -143 117q-12 9 -12 15q0 7 16 22l59 51q14 12 22 12q7 0 20 -8q71 -45 139 -111q12 -10 12 -15t-14 -19l-64 -64h512v508q0 198 -16 287q127 -4 219 -17q31 -3 31 -22q0 -15 -10 -39q-15 -29 -15 -189v-483l4 -280q0 -16 -3.5 -19.5
t-18.5 -3.5h-168q-17 0 -20 4t-3 19v51h-1208v-45q0 -12 -4 -21q74 -3 145 -12q37 -3 37 -24q0 -8 -5 -22q-6 -16 -7 -19q-17 -40 -17 -131q122 14 314 51q200 37 372 86q112 33 174 71zM687 1589q222 -119 370 -211q108 91 170 164q73 87 94 141q101 -52 141 -78
q33 -21 33 -34q0 -15 -25 -29q-27 -17 -73 -66q-86 -101 -192 -192q131 -85 299 -209q12 -9 12 -16q0 -9 -14 -23l-84 -92q-15 -14 -23 -14q-7 0 -22 12q-152 120 -310 229q-188 -136 -415 -236q-45 -18 -52 -18q-15 0 -45 41q-34 51 -92 97q249 85 451 217
q-157 98 -341 196q-16 10 -16 17q0 6 13 18l78 78q15 15 24 15q6 0 19 -7zM1457 1389q52 -32 143 -107q12 -9 12 -16q0 -6 -12 -21l-55 -59q-16 -18 -23 -18q-6 0 -16 9q-78 75 -146 115q-14 9 -14 15t12 18l58 55q15 16 23 16q6 0 18 -7zM969 1690q96 -58 148 -103
q11 -10 11 -16t-13 -21l-54 -57q-14 -14 -22 -14q-11 0 -21 10q-90 72 -141 102q-14 9 -14 17t12 20l53 53q15 15 23 15q7 0 18 -6zM562 1389q75 -49 145 -103q12 -9 12 -16q0 -9 -14 -21l-59 -55q-17 -16 -23 -16q-8 0 -21 12q-80 73 -139 107q-14 7 -14 14q0 6 14 20
l56 51q15 14 24 14q6 0 19 -7z" />
    <glyph glyph-name="uni9B32" unicode="&#xe0100;" 
d="M1438 65q81 -9 145 -9t64 60v555h-387v-90q0 -29 16 -37q14 -8 74 -8q69 0 86 21q11 12 19 79q44 -23 106 -37q40 -9 40 -30q0 -6 -1 -15q-9 -91 -53 -122q-49 -35 -217 -35t-203 22q-28 15 -37 37q-8 20 -8 61v154h-141q-54 -262 -365 -346q-33 -9 -42 -9q-16 0 -28 36
q-28 69 -71 122q146 29 219 74q74 46 100 123h-346v-571l4 -228q0 -16 -4 -19t-18 -3h-174q-18 0 -22 4q-3 4 -3 18l4 226v485l-4 230q0 16 4 19q5 3 21 3l274 -4h1073l276 4q17 0 20 -4t3 -18l-4 -246v-248l4 -262q0 -98 -49 -142q-55 -49 -256 -49q-50 0 -60 10
q-9 9 -16 54q-13 74 -43 135zM739 1358h570l274 4q17 0 20 -4t3 -18l-4 -125v-132l4 -125q0 -16 -4 -19t-19 -3l-274 4h-570l-272 -4q-18 0 -22 4q-3 4 -3 18l5 125v132l-5 125q0 16 5 19q4 3 20 3zM1393 1085v128h-738v-128h738zM408 1465l-260 -2q-23 0 -23 20v144
q0 16 4 19t19 3l260 -4h1235l260 4q16 0 19 -4t3 -18v-144q0 -20 -22 -20l-260 2h-1235zM1200 171h-74v-126l3 -127q0 -18 -4 -22q-3 -3 -17 -3h-164q-15 0 -18 5q-2 3 -2 20l2 127v126h-76l-240 -4q-16 0 -19 4t-3 19v111q0 16 4 19t18 3l240 -4h350l240 4q16 0 19 -4
t3 -18v-111q0 -16 -3.5 -19.5t-18.5 -3.5z" />
    <glyph glyph-name="uni9B5A" unicode="&#xe0100;" 
d="M93 1133q359 193 539 462q37 57 69 131q102 -20 189 -45q31 -11 31 -28q0 -18 -25 -33q-17 -12 -58 -76h373q34 0 49 6q16 6 29 6q24 0 80 -51q60 -49 60 -72q0 -20 -33 -37q-22 -10 -66 -63q-50 -67 -119 -139h185l286 4q16 0 20 -4q3 -4 3 -19l-4 -208v-384l4 -206
q0 -16 -3.5 -19.5t-19.5 -3.5l-286 4h-711l-285 -4q-17 0 -21 4q-3 4 -3 19l4 206v384q0 75 -2 104q-72 -54 -129 -90q-36 -23 -47 -23q-15 0 -33 51q-25 63 -76 124zM533 1194h441q73 85 139 180h-402q-63 -76 -178 -180zM1498 524v176h-365v-176h365zM580 524h357v176
h-357v-176zM1498 1030h-365v-168h365v168zM580 862h357v168h-357v-168zM520 229q24 -10 24 -19q0 -6 -5 -15q-97 -195 -236 -330q-12 -12 -18 -12q-7 0 -23 12l-127 88q-19 15 -19 22t12 19q149 130 229 291q7 15 15 15q6 0 26 -9zM1714 307q116 -125 222 -309q7 -11 7 -18
q0 -9 -22 -23l-125 -76q-20 -10 -26 -10q-8 0 -17 14q-92 186 -212 334q-8 11 -8 15q0 6 22 18l116 61q16 8 23 8q6 0 20 -14zM1305 260q70 -159 108 -326q2 -7 2 -11q0 -15 -28 -21l-144 -29q-21 -4 -26 -4q-11 0 -15 18q-29 173 -89 334q-3 10 -3 14q0 11 25 17l129 24
q14 3 18 3q16 0 23 -19zM858 262q8 1 14 1q17 0 21 -19q32 -146 45 -340q1 -5 1 -8q0 -19 -29 -21l-146 -8q-8 -1 -15 -1q-22 0 -22 21q-3 184 -30 336q-1 7 -1 11q0 16 29 18z" />
    <glyph glyph-name="uni9CE5" unicode="&#xe0100;" 
d="M1656 393h-958l-302 -4q-17 0 -20 4t-3 19l4 254v604l-4 247q0 17 4 20t19 3l278 -4h98l35 80q20 54 29 113q112 -10 216 -29q27 -3 27 -25q0 -12 -18 -30q-22 -19 -33 -41l-29 -68h299l276 4q18 0 22 -4q3 -4 3 -19l-4 -172v-261l4 -166q0 -22 -4 -26q-4 -3 -21 -3
l-276 2h-714v-90h1048l282 4q17 0 20 -4t3 -19v-118q0 -17 -3.5 -21t-19.5 -4l-282 4h-1048v-94h990l285 4q25 0 25 -18v-7q-4 -27 -8 -77q-3 -52 -5 -66q-31 -370 -110 -461q-66 -80 -199 -80q-67 0 -112 2q-35 2 -42 11q-5 6 -12 38q-17 98 -49 154q101 -15 168 -15
q66 0 88 41q34 63 53 318zM1386 1378h-802v-96h802v96zM1386 1047v96h-802v-96h802zM289 338q5 17 14 17q6 0 21 -7l112 -45q24 -10 24 -22q0 -4 -2 -11q-59 -218 -180 -399q-9 -12 -16 -12q-10 0 -28 12l-115 72q-18 12 -18 20q0 6 8 17q121 158 180 358zM594 283l125 12
q8 1 13 1q17 0 22 -19q33 -168 43 -349v-11q0 -17 -29 -19l-137 -11h-8h-6q-21 0 -21 23q0 179 -31 348q-1 6 -1 9q0 13 30 16zM1086 297q48 -141 75 -305q2 -9 2 -13q0 -14 -26 -18l-137 -20q-13 -2 -18 -2q-17 0 -19 24q-17 142 -62 303q-2 7 -2 11q0 11 27 16l123 20
q14 3 19 3q12 0 18 -19zM1391 336q50 -89 89 -219q3 -10 3 -15q0 -12 -25 -18l-119 -29q-10 -2 -17 -2q-17 0 -21 21q-31 127 -76 217q-4 9 -4 14q0 8 26 17l101 28q14 5 21 5q12 0 22 -19z" />
    <glyph glyph-name="uni9E75" unicode="&#xe0100;" 
d="M551 823q-13 8 -13 16t15 21l74 72q16 16 24 16q5 0 16 -6q181 -107 375 -242q87 87 154 183q50 71 82 141q55 -24 141 -72q35 -20 35 -34q0 -15 -25 -29q-19 -12 -53 -60q-98 -132 -192 -227q166 -122 336 -256q12 -12 12 -18q0 -8 -15 -23l-86 -88q-13 -16 -24 -16
q-10 0 -23 12q-179 155 -327 268q-191 -163 -408 -268q-44 -20 -55 -20q-15 0 -41 35q-35 52 -94 100q254 95 456 258q-182 127 -364 237zM569 705q83 -48 160 -115q12 -11 12 -17t-14 -20l-74 -72q-19 -16 -24 -16t-17 12q-96 88 -154 123q-14 11 -14 16q0 7 15 21l67 61
q17 15 23 15t20 -8zM1442 731q99 -69 151 -123q12 -12 12 -18t-16 -23l-65 -71q-12 -15 -21 -15q-5 0 -20 12q-87 87 -146 130q-12 9 -12 16q0 5 12 20l64 66q13 15 22 15q7 0 19 -9zM1046 379q85 -54 150 -119q12 -12 12 -16q0 -5 -16 -21l-72 -69q-16 -17 -25 -17
q-6 0 -18 12q-70 76 -147 132q-13 8 -13 13q0 6 17 19l71 62q15 13 22 13q6 0 19 -9zM934 1038q86 -54 161 -120q11 -9 11 -15t-13 -20l-65 -66q-17 -18 -23 -18t-16 10q-64 62 -162 129q-12 8 -12 14q0 7 12 19l68 65q11 11 18 11t21 -9zM403 -163h-160q-15 0 -18.5 3.5
t-3.5 18.5l4 575v338l-4 446q0 18 4 22q4 3 19 3l280 -4h379v289q0 136 -14 198q119 -6 221 -18q35 -3 35 -23q0 -13 -15 -39q-12 -22 -12 -96h498l240 4q16 0 19 -4t3 -18v-138q0 -17 -4 -21q-4 -3 -18 -3l-240 4h-498v-135h410l277 4q16 0 19 -5q3 -4 3 -20l-4 -401v-383
l4 -573q0 -16 -4 -19t-18 -3h-162q-17 0 -20 4t-3 18v80h-1192v-82q0 -16 -5 -19q-4 -3 -20 -3zM428 1063v-942h1192v942h-1192z" />
    <glyph glyph-name="uni9E7F" unicode="&#xe0100;" 
d="M405 383q-39 -274 -151 -487q-19 -37 -31 -37q-6 0 -39 33q-66 76 -129 117q122 186 157 450q33 233 33 643l-4 420q0 16 5 19q4 3 20 3l272 -4h414v49q0 80 -14 137q104 0 217 -10q35 -3 35 -18q0 -9 -15 -41q-10 -21 -10 -76v-41h457l272 4q16 0 19 -4q2 -3 2 -18v-136
q0 -16 -4 -19q-3 -3 -17 -3l-272 4h-258v-149h94l333 4q18 0 22 -4q3 -4 3 -18l-4 -164v-144l4 -164q0 -16 -5 -19q-4 -3 -20 -3l-333 4h-1024q-8 -175 -29 -328zM440 879h283v174h-281zM911 879h262v174h-262v-174zM1618 879v174h-254v-174h254zM442 1368v-149h281v149
h-281zM911 1219h262v149h-262v-149zM1740 598q55 -49 122 -129q12 -15 12 -31q0 -20 -27 -22q-22 -3 -57 -17q-169 -86 -383 -149v-125q0 -35 6 -47q6 -9 22 -17q22 -8 131 -8q122 0 154 29q31 25 37 164q50 -34 137 -53q32 -8 40 -14q9 -6 9 -20q0 -8 -4 -34
q-22 -147 -88 -201q-41 -33 -110 -44q-62 -11 -183 -11q-219 0 -270 27q-78 38 -78 167v394q0 142 -10 200q91 -2 192 -12q39 -6 39 -24q0 -12 -12 -37t-12 -121v-33q176 58 270 117q29 17 63 51zM1135 219q-9 -41 -13 -121q-1 -49 -14 -62q-9 -10 -49 -22
q-275 -83 -496 -129q-73 -18 -84 -27q-18 -12 -29 -12q-18 0 -26 31q-15 51 -39 184q75 4 147 15l37 6v399q0 108 -12 176q119 -3 200 -12q27 -3 27 -20q0 -15 -10 -35q-10 -21 -10 -105h180l148 4q20 0 20 -20v-135q0 -23 -20 -23l-148 4h-180v-196q211 46 371 100z" />
    <glyph glyph-name="uni9EA5" unicode="&#xe0100;" 
d="M447 1378l-268 -4q-17 0 -20 4t-3 18v140q0 16 4 19t19 3l268 -4h461q0 97 -13 166q140 -4 212 -14q29 -6 29 -23q0 -11 -9 -30q-14 -29 -14 -99h489l266 4q18 0 22 -4q3 -4 3 -18v-140q0 -16 -5 -19q-4 -3 -20 -3l-266 4h-149q59 -15 112 -35q27 -10 27 -24
q0 -17 -17 -27q-15 -9 -26 -29q124 -130 342 -204q-35 -39 -70 -115q-19 -53 -35 -53q-13 0 -47 18q-154 88 -272 209q-34 -46 -76 -88q-26 -29 -39 -29q-11 0 -41 33q-42 50 -92 80q96 76 154 182q25 46 37 82h-297v-221q176 -185 414 -286q177 -77 458 -134
q-22 -28 -70 -146q-16 -38 -21.5 -45.5t-19.5 -7.5q-9 0 -47 10q-495 148 -716 392q1 -44 5 -112q3 -48 3 -62q0 -18 -5 -22q-3 -3 -18 -3h-170q-16 0 -19 5q-3 4 -3 20q0 14 2 71q3 57 4 95q-208 -221 -678 -378q-34 -10 -43 -10q-17 0 -39 45q-44 91 -80 140
q296 69 491 168q205 104 347 260v221h-369q37 -10 111 -33q29 -9 29 -24q0 -16 -17 -29q-23 -17 -37 -43q75 -80 166 -129q-59 -52 -82 -88q-31 -43 -43 -43q-13 0 -47 31q-60 51 -90 86q-87 -107 -207 -189q-28 -18 -39 -18q-13 0 -35 35q-39 64 -90 106q191 106 287 252
q32 52 43 86h-41zM167 22q422 45 711 170q-136 51 -317 110q-85 -48 -199 -99q-36 -16 -47 -16q-15 0 -47 47q-31 50 -82 95q346 123 536 318q54 53 76 98q114 -19 185 -37q23 -7 23 -25q0 -10 -21 -22q-18 -9 -45 -43h421q29 0 48 6q18 6 31 6q23 0 90 -55q58 -47 58 -74
q0 -17 -23 -31q-29 -18 -68 -59q-85 -95 -195 -181q213 -83 420 -188q14 -7 14 -14q0 -6 -12 -25l-84 -125q-14 -19 -24 -19q-7 0 -21 7q-218 121 -481 233q-303 -176 -781 -257q-28 -5 -38 -5q-19 0 -28 14q-6 8 -22 42q-38 83 -78 129zM737 419q189 -53 356 -113
q102 67 189 160h-490z" />
    <glyph glyph-name="uni9EBB" unicode="&#xe0100;" 
d="M1089 1006q18 0 22 -4q3 -4 3 -19v-137q0 -17 -5 -20q-4 -3 -20 -3l-158 5q75 -144 232 -279q-61 -72 -86 -121q-13 -27 -25 -27q-13 0 -37 35q-57 89 -100 185l12 -756q0 -18 -4 -21q-3 -4 -16 -4h-156q-16 0 -19 5q-3 4 -3 20t3 111q8 283 9 587q-70 -233 -199 -434
q-22 -35 -30 -35q-6 0 -31 37q-37 56 -103 107q-40 -167 -124 -336q-22 -41 -35 -41t-37 33q-73 90 -129 123q113 171 151 429q31 216 31 672l-4 373q0 20 23 20l274 -4h430v45q0 118 -12 172q96 0 215 -10q33 -3 33 -21q0 -14 -12 -34q-15 -26 -15 -101v-51h453l270 4
q18 0 21 -4q3 -3 3 -16v-152q0 -17 -4 -21q-4 -3 -20 -3l-270 4h-1178v-238q0 -471 -39 -718q-18 -97 -25 -119q206 230 312 584l-160 -5q-20 0 -20 23v137q0 23 20 23l184 -4h19v88q0 108 -12 170q88 -3 196 -13q27 -3 27 -20q0 -15 -10 -39q-11 -20 -11 -94v-92z
M1857 1006q16 0 20 -4q3 -4 3 -19v-137q0 -17 -4 -20t-19 -3l-217 4h-20q135 -327 375 -561q-53 -48 -99 -124q-19 -33 -31 -33t-32 29q-176 239 -267 495l15 -770q0 -16 -5 -20q-4 -3 -20 -3h-151q-17 0 -20 4t-3 19q0 16 3 112q8 287 9 605q-87 -252 -229 -461
q-21 -33 -33 -33q-8 0 -35 35q-48 59 -110 98q239 263 358 608q-66 -1 -118 -3q-35 -1 -37 -1q-17 0 -20 4t-3 19v137q0 16 4 20q4 3 19 3l196 -5v86q0 100 -12 168q94 -2 194 -12q29 -3 29 -20q0 -10 -10 -35q-12 -25 -12 -98v-89h73z" />
    <glyph glyph-name="uni9EC3" unicode="&#xe0100;" 
d="M1115 823h282l291 4q16 0 20 -4q3 -4 3 -18l-4 -177v-239l4 -175q0 -16 -3.5 -19.5t-19.5 -3.5l-291 4h-41l9 -4q215 -132 557 -182q-49 -46 -97 -119q-31 -50 -52 -50q-9 0 -42 7q-309 61 -543 229q-9 6 -9 10q0 9 77 60q70 46 82 49h-651q93 -42 153 -82q27 -19 27 -33
q0 -20 -33 -26q-24 -7 -80 -39q-206 -121 -454 -174q-31 -7 -42 -7q-21 0 -48 52q-45 75 -88 119q285 45 450 126q62 31 102 64h-20l-291 -4q-16 0 -19 4t-3 19l4 175v239l-4 177q0 16 4 19t18 3l291 -4h260v102h-534l-258 -4q-17 0 -20 4t-3 18v126q0 16 4 19t19 3l258 -4
h1292l258 4q16 0 20 -4q3 -4 3 -18v-126q0 -16 -5 -19q-3 -3 -18 -3l-258 4h-557v-102zM914 332v108h-364v-108h364zM1115 332h387v108h-387v-108zM914 684h-364v-105h364v105zM1115 684v-105h387v105h-387zM1421 1546h95l282 4q16 0 20 -4q3 -4 3 -18v-126q0 -16 -4 -19
t-19 -3l-282 4h-95v-27l5 -180q0 -16 -5 -19q-3 -3 -18 -3l-233 4h-312l-233 -4q-16 0 -19 4t-3 18l3 180v27h-67l-283 -4q-16 0 -19 4t-3 18v126q0 16 4 19t18 3l283 -4h67q0 90 -12 164q135 -5 205 -12q29 -4 29 -19q0 -3 -11 -35q-10 -24 -10 -98h414q0 90 -13 164
q135 -5 205 -12q29 -4 29 -19q0 -4 -10 -35q-8 -17 -11 -98zM807 1384v-90h414v90h-414z" />
    <glyph glyph-name="uni9ECD" unicode="&#xe0100;" 
d="M59 503q486 127 784 357q64 43 90 96h-8q-16 0 -19 4t-3 19t4 62q3 45 4 75q-254 -240 -649 -373q-34 -12 -47 -12q-17 0 -45 53q-35 70 -82 117q433 98 663 266h-307l-266 -4q-16 0 -20 4q-3 4 -3 18v134q0 16 4 19t19 3l266 -4h465v121q-250 -13 -459 -19q-51 0 -62 8
q-10 8 -28 47q-27 64 -63 103q327 3 669 29q195 13 389 51q84 15 177 45q66 -37 161 -115q25 -18 25 -41t-45 -26q-50 0 -117 -13q-189 -33 -438 -55v-135h485l266 4q17 0 20 -4t3 -18v-134q0 -16 -4 -19t-19 -3l-266 4h-323q247 -165 692 -254q-45 -48 -84 -129
q-23 -51 -43 -51q-13 0 -47 12q-444 135 -684 371q0 -9 7 -83q3 -37 3 -54t-4 -20t-19 -3h-124q84 -17 145 -33q35 -11 35 -30q0 -16 -13 -23q140 -116 388 -208q213 -80 462 -126q-45 -48 -86 -143q-22 -53 -41 -53q-2 0 -47 12q-142 46 -295 108q-12 -8 -22 -18
q-64 -61 -178 -139l-17 -11q221 -129 555 -204q-50 -47 -94 -123q-27 -49 -43 -49q-13 0 -47 12q-288 89 -505 238q-14 9 -14 14q0 3 17 22l82 90q-11 8 -22 25q-30 39 -91 84q112 60 203 145q-195 100 -336 224q-173 -139 -331 -228q92 -56 176 -125q14 -11 14 -20
q0 -7 -14 -25l-54 -59q4 -52 23 -100q12 -31 12 -45q0 -23 -57 -51q-188 -90 -373 -154q-51 -20 -59 -29q-19 -18 -31 -18q-13 0 -27 24q-32 63 -73 172q76 14 141 33q196 62 363 137q-100 97 -222 170q-139 -65 -276 -109q-34 -12 -47 -12q-21 0 -43 53q-33 77 -76 119z
M1128 573q-10 -25 -10 -104v-168l6 -248q0 -123 -70 -168q-67 -41 -217 -41q-48 0 -59 10q-10 9 -25 52q-27 82 -63 139q75 -9 161 -9q68 4 68 66v377q0 117 -14 174q102 -3 202 -14q33 -3 33 -23q0 -11 -5 -24q-6 -16 -7 -19z" />
    <glyph glyph-name="uni9ED2" unicode="&#xe0100;" 
d="M372 303l-256 -4q-16 0 -19 4t-3 18v136q0 16 4 19t18 3l256 -4h527v127h-359l-276 -4q-17 0 -20 4t-3 18v128q0 17 4 21q4 3 19 3l276 -4h359v118h-269l-284 -4q-18 0 -22 5q-3 4 -3 20l4 194v322l-4 195q0 16 5 19q4 3 20 3l284 -4h761l284 4q18 0 22 -4q3 -4 3 -18
l-4 -195v-322l4 -194q0 -18 -5 -22q-4 -3 -20 -3l-284 4h-289v-118h395l277 4q16 0 19 -5q3 -4 3 -19v-128q0 -15 -3.5 -18.5t-18.5 -3.5l-277 4h-395v-127h541l256 4q16 0 19 -4t3 -18v-136q0 -15 -3.5 -18.5t-18.5 -3.5l-256 4h-1271zM1493 1044v141h-391v-141h391z
M1493 1474h-391v-137h391v137zM528 1044h371v141h-371v-141zM528 1337h371v137h-371v-137zM512 215q20 -9 20 -18q0 -5 -6 -17q-95 -184 -233 -313q-14 -10 -21 -10q-8 0 -26 12l-125 92q-19 15 -19 23q0 7 12 16q139 105 228 263q9 15 17 15q6 0 28 -10zM1671 270
q125 -124 223 -284q8 -12 8 -18q0 -9 -22 -21l-129 -72q-18 -9 -25 -9q-8 0 -16 15q-99 176 -213 307q-10 12 -10 18q0 7 22 17l117 51q19 8 25 8q8 0 20 -12zM1278 229q60 -123 100 -280q1 -7 1 -11q0 -15 -28 -22l-135 -29q-17 -3 -23 -3q-12 0 -16 20q-29 135 -92 289
q-3 8 -3 13q0 13 28 17l125 21q13 2 19 2q15 0 24 -17zM674 190q-2 8 -2 12q0 15 30 19l129 15h15q14 0 20 -21q36 -131 48 -293v-8q0 -20 -29 -23l-138 -14q-14 -2 -19 -2q-16 0 -18 23q-8 160 -36 292z" />
    <glyph glyph-name="uni9EF9" unicode="&#xe0100;" 
d="M400 1176l-259 -4q-16 0 -19 4t-3 18v137q0 18 4 22q4 3 18 3l259 -4h338v182q0 121 -12 178q124 -4 198 -12q25 -3 25 -18q0 -1 -10 -31q-11 -24 -11 -117v-182h166v180q0 112 -12 178q123 -4 196 -12q27 -3 27 -18q0 -3 -10 -29q-10 -24 -10 -117v-182h106
q61 86 116 201q20 45 35 114q96 -17 204 -49q29 -8 29 -26q0 -19 -27 -35q-19 -14 -32 -41q-58 -98 -105 -164h44l258 4q16 0 19 -4q3 -5 3 -21v-137q0 -16 -4 -19t-18 -3l-258 4h-154q189 -187 475 -289q-38 -33 -80 -92q-32 -47 -49 -47q-11 0 -47 16v-377l2 -317
q0 -114 -55 -164q-53 -47 -262 -49q-20 -1 -26 -1q-30 0 -39 13q-6 9 -15 49q-18 77 -49 133q89 -8 169 -8q43 0 57 16q13 14 13 50v649h-474v-582l4 -292q0 -17 -4 -20t-18 -3h-177q-16 0 -19 4t-3 19l4 292v582h-451v-670l4 -225q0 -16 -4 -19t-18 -3h-166q-17 0 -20 4
t-3 18l4 223v676q-45 -22 -55 -22q-12 0 -33 33q-36 63 -92 108q236 98 375 227q31 29 57 68h-106zM662 1125q29 -20 29 -33q0 -17 -18 -25q-26 -10 -52 -37q-38 -40 -109 -96h396v242h-332zM1513 934q-105 78 -176 156q-8 9 -8 16q0 10 21 21l94 49h-323v-242h392zM492 94
q121 182 121 447q0 63 -9 121l170 -13q37 -3 37 -24q0 -5 -10 -31q-10 -21 -10 -55q0 -297 -101 -486q-20 -41 -37 -41q-12 0 -38 20q-49 36 -123 62zM1465 625q0 -11 -11 -29q-10 -18 -10 -125v-141l4 -168q0 -16 -4 -19.5t-20 -3.5h-138q-16 0 -19 4t-3 19l4 168v141
q0 135 -10 188q20 -1 61 -3q83 -5 117 -9q29 -4 29 -22zM473 1657q83 -96 139 -195q7 -11 7 -17q0 -10 -25 -20l-127 -47q-17 -6 -24 -6q-10 0 -19 17q-49 100 -129 200q-8 10 -8 16q0 10 23 17l120 43q14 5 21 5q9 0 22 -13z" />
    <glyph glyph-name="uni9EFD" unicode="&#xe0100;" 
d="M412 145q0 -17 -4 -21q-4 -3 -19 -3h-162q-16 0 -19 4t-3 20l4 209v409l-4 213q0 18 4 22q4 3 19 3l208 -4h305v129h-147l-283 -4q-16 0 -19 4t-3 19l4 145v162l-4 145q0 17 4 20t18 3l283 -4h858l284 4q17 0 20 -4t3 -19l-4 -145v-162l4 -145q0 -17 -4 -20t-19 -3
l-284 4h-162v-129h308l219 4q16 0 19 -5q3 -4 3 -20l-4 -208v-305l2 -184q39 -17 86 -27q34 -9 41 -14q9 -7 9 -22q0 -6 -3 -30q-20 -190 -116 -255q-100 -68 -471 -68q-295 0 -398 9q-99 9 -145 34q-56 32 -76 82q-23 54 -23 161v76h-333q1 -29 3 -59q1 -19 1 -21z
M1598 236h-308q2 -35 4 -73q1 -24 1 -26q0 -15 -4 -18.5t-21 -3.5h-154q-17 0 -21 4q-3 3 -3 18l4 320v997h-160v-1268q0 -65 12 -90t41 -35q57 -22 400 -22q245 0 311 43q48 32 63 152zM1638 398v144h-348v-144h348zM408 387h333v151h-333v-151zM1638 835h-348v-141h348
v141zM408 690h333v145h-333v-145zM1557 1282v172h-267v-172h267zM492 1282h249v172h-249v-172z" />
    <glyph glyph-name="uni9F0E" unicode="&#xe0100;" 
d="M1193 1657l239 4q18 0 22 -4q3 -4 3 -18l-4 -202v-354l4 -202q0 -17 -5 -20q-4 -3 -20 -3l-239 4h-338l-242 -4q-16 0 -19 4t-3 19l4 202v354l-4 202q0 16 4 19t18 3l242 -4h338zM1258 1001v92h-471v-92h471zM1258 1516h-471v-91h471v91zM787 1214h471v90h-471v-90z
M1309 606v-121h336l281 4q16 0 19 -4t3 -18v-136q0 -15 -3.5 -18.5t-18.5 -3.5q-3 0 -25 1q-73 2 -161 3v-240l4 -211q0 -22 -21 -22h-162q-16 0 -19 4t-3 18l4 211v240h-234v-184l5 -267q0 -16 -5 -19q-3 -3 -18 -3h-166q-20 0 -20 22l4 246v426l-4 219q0 18 4 22q3 3 16 3
l188 -4h332v520q0 138 -14 232q118 -4 211 -17q37 -3 37 -24q0 -15 -15 -47q-14 -35 -14 -146v-465l4 -202q0 -16 -3.5 -19.5t-19.5 -3.5l-186 4h-336zM87 -29q134 67 192 145q58 76 74 197q-104 -1 -183 -3q-7 0 -41 -1h-13q-21 0 -21 22v136q0 22 21 22l289 -4h313v121
h-313l-181 -4q-16 0 -19 4t-3 19l4 202v465q0 138 -15 232q122 -4 214 -17q33 -3 33 -22q0 -17 -15 -49q-12 -33 -12 -142v-520h307l179 4q16 0 20 -5q3 -4 3 -20l-4 -219v-426l4 -246q0 -16 -4 -19t-19 -3h-159q-17 0 -21 4q-3 4 -3 18l4 267v184h-164q-18 -159 -83 -268
q-54 -91 -157 -170q-35 -29 -47 -29q-11 0 -51 37q-53 50 -129 88z" />
    <glyph glyph-name="uni9F13" unicode="&#xe0100;" 
d="M1291 1233l-254 -4q-16 0 -19 5q-3 4 -3 20v92h-10l-244 4h-82v-135h49l228 4q16 0 19 -4t3 -19v-125q0 -16 -4 -19t-18 -3l-228 4h-311l-227 -4q-18 0 -22 4q-3 4 -3 18v125q0 17 5 20q4 3 20 3l227 -4h61v135h-108l-246 -4q-16 0 -19 4t-3 18v131q0 17 4 20q3 3 18 3
l246 -4h108q-3 123 -14 190q82 -2 207 -14q33 -3 33 -23q0 -14 -12 -43q-13 -27 -13 -110h82l244 4q16 0 19 -4t3 -19v-75h10l254 -4h68v38q0 181 -12 250q117 -3 211 -14q29 -3 29 -23q0 -5 -15 -53q-8 -32 -8 -155v-43h135l254 4q21 0 21 -23v-147q0 -18 -4 -22
q-4 -3 -17 -3l-254 4h-135v-260h150q25 0 38 9q17 10 25 10q17 0 76 -53q63 -61 63 -84q0 -13 -18 -31q-23 -19 -41 -70q-104 -286 -246 -467q148 -133 397 -237q-53 -69 -79 -144q-17 -51 -35 -51q-7 0 -47 18q-219 113 -373 267q-165 -153 -443 -283q-36 -16 -47 -16
q-16 0 -39 45q-41 76 -92 127q299 110 490 282q-145 201 -224 496l-69 -2q-18 0 -22 4q-3 4 -3 18v144q0 16 5 19q4 3 20 3l241 -4h68v260h-68zM1656 793h-342q51 -199 160 -354q112 146 182 354zM440 948h270l219 4q17 0 20 -5q3 -4 3 -20l-4 -133v-128l4 -135
q0 -17 -4 -20t-19 -3l-219 4h-270l-219 -4q-17 0 -20 4t-3 19l4 135v128l-4 133q0 18 4 22q4 3 19 3zM755 664v134h-358v-134h358zM1009 287q-8 -46 -8 -111q1 -18 1 -26q0 -32 -12 -41q-9 -7 -48 -19q-320 -90 -662 -159q-52 -11 -67 -21q-25 -12 -33 -12q-21 0 -29 25
q-20 65 -51 188q87 2 209 22q205 34 278 49q34 89 60 180q17 66 24 123q117 -26 184 -53q23 -8 23 -24q0 -13 -14 -27q-16 -16 -31 -55l-37 -97q43 10 213 58zM422 459q53 -87 94 -199q3 -10 3 -15q0 -10 -24 -20l-127 -45q-16 -6 -21 -6q-9 0 -15 19q-43 122 -88 204
q-5 9 -5 14q0 11 25 19l117 37q14 5 21 5q9 0 20 -13z" />
    </font>
</defs>
</svg>
